\m/ 80's metal \m/

Информационно-аналитический форум "80 см пыли" (In Search We Trust) "У нас никто никуда не спешит"
Железнодорожная биржа - RailAgent
It is currently 17 Aug 2018

All times are UTC + 3 hours

Spoiler
Chat - temporary registration for foreign users (please leave your application here)







Post new topic Reply to topic  [ 10 posts ] 
Author Message
 
PostPosted: 09 Sep 2009 
Old Time Rock`n`Roll
User avatar
Joined: 23 Jun 2008
Posts: 3350
Lоcаtion: г.Ульяновск
Age: 40
Name: Константин
Helloise – Polarity (1986)

Image

Year:1986
Style: Melodic Heavy Metal
Country: Netherlands
Format: WV + log + cue + booklet
Size: 494 Mb + 36 Mb

Tracklist
01. Polarity (6:04)
02. Destination (4:26)
03. Give It Up (2:32)
04. En La Linea De Fuego (1:17)
05. In The Line Of Fire (4:48)
06. Helloise (4:32)
07. See Tomorrow (3:31)
08. Pool Of Confusion (3:37)
09. So Close To Love (4:38)
10. Sole Survivor (3:55)
Bonus tracks
11. Mystery Eyes (2:55)
12. Rock Unites (2:50)
13. Danger Games (3:27)
14. Slow Down (Give It Up) (3:13)
15. Polarity (4:50)
16. In The Line Of Fire (4:55)
17. Somebody (3:36)
18. Wanted By The FBI (2:58)
19. Don't Talk To Me (4:18)

TPT – 72:51

Line-Up
Arjan Boogerds Guitars, Backing Vocals
Ben Blaauw Guitars, Backing Vocals
Ernst Van Ee Drums, Backing Vocals
Marchell Remeeus Bass, Backing Vocals
Stan Verbraak Vocals

Album Credits:
Produced: John Sonneveld & Helloise

Лог
EAC extraction logfile from 6. October 2007, 12:21 for CD
Helloise / Polarity

Used drive : LITE-ON LTR-52246S Adapter: 1 ID: 0
Read mode : Secure with NO C2, accurate stream, disable cache
Read offset correction : 6
Overread into Lead-In and Lead-Out : No

Used output format : Internal WAV Routines
44.100 Hz; 16 Bit; Stereo

Other options :
Fill up missing offset samples with silence : Yes
Delete leading and trailing silent blocks : No
Native Win32 interface for Win NT & 2000


Range status and errors
Selected range
Filename J:\TAKARABAKO\Helloise - Polarity.wav

Peak level 100.0 %
Range quality 100.0 %
CRC 354607F8
Copy OK

No errors occured

End of status report


Куй
REM GENRE Metal
REM DATE 1986
REM DISCID 1A111313
REM COMMENT "ExactAudioCopy v0.95b4"
PERFORMER "Helloise"
TITLE "Polarity"
FILE "Helloise - Polarity.wav" WAVE
TRACK 01 AUDIO
TITLE "Polarity"
PERFORMER "Helloise"
INDEX 01 00:00:00
TRACK 02 AUDIO
TITLE "Destination"
PERFORMER "Helloise"
INDEX 00 06:04:50
INDEX 01 06:06:10
TRACK 03 AUDIO
TITLE "Give It Up"
PERFORMER "Helloise"
INDEX 00 10:32:37
INDEX 01 10:33:64
TRACK 04 AUDIO
TITLE "En La Linea De Fuego"
PERFORMER "Helloise"
INDEX 00 13:06:47
INDEX 01 13:07:70
TRACK 05 AUDIO
TITLE "In The Line Of Fire"
PERFORMER "Helloise"
INDEX 01 14:24:57
TRACK 06 AUDIO
TITLE "Helloise"
PERFORMER "Helloise"
INDEX 01 19:12:54
TRACK 07 AUDIO
TITLE "See Tomorrow"
PERFORMER "Helloise"
INDEX 00 23:44:64
INDEX 01 23:46:15
TRACK 08 AUDIO
TITLE "Pool Of Confusion"
PERFORMER "Helloise"
INDEX 00 27:17:66
INDEX 01 27:19:17
TRACK 09 AUDIO
TITLE "So Close To Love"
PERFORMER "Helloise"
INDEX 00 30:56:74
INDEX 01 30:58:20
TRACK 10 AUDIO
TITLE "Sole Survivor"
PERFORMER "Helloise"
INDEX 01 35:37:67
TRACK 11 AUDIO
TITLE "Mystery Eyes"
PERFORMER "Helloise"
INDEX 00 39:32:72
INDEX 01 39:34:22
TRACK 12 AUDIO
TITLE "Rock Unites"
PERFORMER "Helloise"
INDEX 01 42:30:37
TRACK 13 AUDIO
TITLE "Danger Games"
PERFORMER "Helloise"
INDEX 00 45:21:03
INDEX 01 45:22:32
TRACK 14 AUDIO
TITLE "Slow Down (Give It Up)"
PERFORMER "Helloise"
INDEX 00 48:49:43
INDEX 01 48:51:10
TRACK 15 AUDIO
TITLE "Polarity"
PERFORMER "Helloise"
INDEX 00 52:05:09
INDEX 01 52:06:32
TRACK 16 AUDIO
TITLE "In The Line Of Fire"
PERFORMER "Helloise"
INDEX 00 56:56:73
INDEX 01 56:58:17
TRACK 17 AUDIO
TITLE "Somebody"
PERFORMER "Helloise"
INDEX 00 61:54:04
INDEX 01 61:55:30
TRACK 18 AUDIO
TITLE "Wanted By The FBI"
PERFORMER "Helloise"
INDEX 00 65:32:23
INDEX 01 65:33:42
TRACK 19 AUDIO
TITLE "Don't Talk To Me"
PERFORMER "Helloise"
INDEX 00 68:32:15
INDEX 01 68:33:35


Spectres

Image

WV
megaupload-album

booklet
megaupload-booklet

ММТ, автор релиза – frafra64.

Image


Top
 Profile  
 
 
PostPosted: 09 Sep 2009 
Хиппей (support team)
User avatar
Joined: 30 Jul 2007
Posts: 105647
Lоcаtion: Киев (Kyiv, UA)
Age: 45
Name: Andrey
:thanx:

_________________


Top
 Profile E-mail  
 
 
PostPosted: 09 Sep 2009 
Труъ
User avatar
Joined: 14 Jul 2009
Posts: 158
Lоcаtion: Hell Is Here
Age: 48
Name: Adriano
Thank You !! :thanx:


Top
 Profile E-mail  
 
 
PostPosted: 30 Aug 2016 
5cm
User avatar
Joined: 28 Mar 2013
Posts: 66
Age: 27
Name: Erik
Hi friends !!

Please share a new link !!

Thanks a lot !!


Top
 Profile E-mail  
 
 
PostPosted: 01 Sep 2016 
Old Time Rock`n`Roll
User avatar
Joined: 23 Jun 2008
Posts: 3350
Lоcаtion: г.Ульяновск
Age: 40
Name: Константин
Helloise86-lossless


Top
 Profile  
 
 
PostPosted: 01 Sep 2016 
Я набрал 1000 сообщений!
Joined: 24 Oct 2009
Posts: 2003
Lоcаtion: Оренбург
Age: 54
Name: Юра
:thanx:

_________________
:dash: I am happy!


Top
 Profile E-mail  
 
 
PostPosted: 04 Sep 2016 
Работнечег
User avatar
Joined: 28 Aug 2007
Posts: 5399
Lоcаtion: г. Москва
Age: 29
Name: Дима
Спасибо!
Реап можно убирать)


Top
 Profile E-mail  
 
 
PostPosted: 04 Sep 2016 
Хиппей (support team)
User avatar
Joined: 30 Jul 2007
Posts: 105647
Lоcаtion: Киев (Kyiv, UA)
Age: 45
Name: Andrey
Костя, спасибо =)

mirror: iFolder l Narod l M-Cloud

_________________


Top
 Profile E-mail  
 
 
PostPosted: 05 Sep 2016 
Хиппей (support team)
User avatar
Joined: 30 Jul 2007
Posts: 105647
Lоcаtion: Киев (Kyiv, UA)
Age: 45
Name: Andrey
Какой милый альбом, какая милая помесь хардынхэви и AOR'a :meloman:

..а с другой стороны повеяло Мальмcтином и.. Дио.... :dance:


6+/10

_________________


Top
 Profile E-mail  
 
 
PostPosted: 08 Sep 2016 
Alive Again
User avatar
Joined: 17 Dec 2008
Posts: 4612
Lоcаtion: Курск Воронеж Оскол
Age: 44
Name: Дмитрий
Scatterbrain wrote:
Какой милый альбом, какая милая помесь хардынхэви и AOR'a :meloman:

Ну раз так, то и я послушаю. Костя, :thanx:


Top
 Profile E-mail  
 
Display posts from previous:  Sort by  
Post new topic Reply to topic  [ 10 posts ] 

All times are UTC + 3 hours


Who is online

Users browsing this forum: No registered users and 4 guests


You cannot post new topics in this forum
You cannot reply to topics in this forum
You cannot edit your posts in this forum
You cannot delete your posts in this forum
You cannot post attachments in this forum

Search for:
Яндекс.Метрика
Powered by phpBB © 2000, 2002, 2005, 2007 phpBB Group