\m/ 80's metal \m/

Информационно-аналитический форум "80 см пыли" (In Search We Trust) "У нас никто никуда не спешит"
Железнодорожная биржа - RailAgent
It is currently 25 May 2018

All times are UTC + 3 hours

Spoiler
Chat - temporary registration for foreign users (please leave your application here)







Post new topic Reply to topic  [ 53 posts ]  Go to page Previous  1, 2, 3  Next
Author Message
 
PostPosted: 12 Aug 2009 
Хиппей (support team)
User avatar
Joined: 30 Jul 2007
Posts: 103633
Lоcаtion: Киев (Kyiv, UA)
Age: 44
Name: Andrey
Хм, почему-то под вечер хочется всех немножко помокать в кастрюле... :oops:

_________________


Top
 Profile E-mail  
 
 
PostPosted: 12 Aug 2009 
А может смените мне статус?..
Joined: 03 Jul 2009
Posts: 762
Lоcаtion: Serbia
Name: Laki
oldrocker wrote:
glory11
You talk about Sleeping Dogs (Live)? I `ll upload this track tonite.



Yes, that's the one. Thanks !!!!!!


Top
 Profile E-mail  
 
 
PostPosted: 12 Aug 2009 
Old Time Rock`n`Roll
User avatar
Joined: 23 Jun 2008
Posts: 3335
Lоcаtion: г.Ульяновск
Age: 39
Name: Константин
Scatterbrain wrote:
Хм, в хабе у кого куй есть? :vic:
И с последним трэком я не понял - косяк рипа или заливки. Кто-то еще слушал весь второй альбом?..


Кто скачал, утого и есть наверное.
Хоть под торрент, хоть под ДС расшаривается одна папка на винте. Какой смысл делать дубликат папки, оставлять в ней собственно альбом и выбрасывать сканы, логи и куи. Кому нужна такая сортировка?
Прослушал трек 16, все нормально, никаких сбоев нет. Посмотрел статистику, альбом 18 раз скачан, первая претензия. Прежде чем заливать альбом, созданный архив я распаковываю у себя, проверяю на предмет таких ошибок.
Проблемы есть с бонусами на 1985 г, но я об этом и написал.


Scatterbrain wrote:
Хм, почему-то под вечер хочется всех немножко помокать в кастрюле... :oops:

Ты лучше в ней компот свари))
Как нынче с урожаем сливы в Самостийной?))


Top
 Profile  
 
 
PostPosted: 12 Aug 2009 
Old Time Rock`n`Roll
User avatar
Joined: 23 Jun 2008
Posts: 3335
Lоcаtion: г.Ульяновск
Age: 39
Name: Константин
Heaven-1983, track 16, Sleeping Dogs (Live)
http://www.megaupload.com/?d=KI8SJ8LT

cue к этому альбому
http://www.megaupload.com/?d=I1V8HMKJ

или в разрезе
REM GENRE Rock
REM DATE 1983
REM DISCID DD0E3F10
REM COMMENT "ExactAudioCopy v0.99pb4"
PERFORMER "Heaven"
TITLE "Where Angels Fear To Tread"
FILE "Heaven - Where Angels Fear To Tread - 01 - Where Angels Fear To Tread.wav" WAVE
TRACK 01 AUDIO
TITLE "Where Angels Fear To Tread"
PERFORMER "Heaven"
FLAGS DCP
INDEX 01 00:00:00
FILE "Heaven - Where Angels Fear To Tread - 02 - Love Child.wav" WAVE
TRACK 02 AUDIO
TITLE "Love Child"
PERFORMER "Heaven"
FLAGS DCP
INDEX 01 00:00:00
TRACK 03 AUDIO
TITLE "Scream For Me"
PERFORMER "Heaven"
FLAGS DCP
INDEX 00 03:53:03
FILE "Heaven - Where Angels Fear To Tread - 03 - Scream For Me.wav" WAVE
INDEX 01 00:00:00
TRACK 04 AUDIO
TITLE "Don't Mean Nothin'"
PERFORMER "Heaven"
FLAGS DCP
INDEX 00 03:46:14
FILE "Heaven - Where Angels Fear To Tread - 04 - Don't Mean Nothin'.wav" WAVE
INDEX 01 00:00:00
TRACK 05 AUDIO
TITLE "Rock School"
PERFORMER "Heaven"
FLAGS DCP
INDEX 00 03:57:66
FILE "Heaven - Where Angels Fear To Tread - 05 - Rock School.wav" WAVE
INDEX 01 00:00:00
TRACK 06 AUDIO
TITLE "Madness"
PERFORMER "Heaven"
FLAGS DCP
INDEX 00 04:22:32
FILE "Heaven - Where Angels Fear To Tread - 06 - Madness.wav" WAVE
INDEX 01 00:00:00
TRACK 07 AUDIO
TITLE "Hard Life"
PERFORMER "Heaven"
FLAGS DCP
INDEX 00 03:24:28
FILE "Heaven - Where Angels Fear To Tread - 07 - Hard Life.wav" WAVE
INDEX 01 00:00:00
TRACK 08 AUDIO
TITLE "She Stole My Heart"
PERFORMER "Heaven"
FLAGS DCP
INDEX 00 04:05:37
FILE "Heaven - Where Angels Fear To Tread - 08 - She Stole My Heart.wav" WAVE
INDEX 01 00:00:00
TRACK 09 AUDIO
TITLE "You"
PERFORMER "Heaven"
FLAGS DCP
INDEX 00 03:54:10
FILE "Heaven - Where Angels Fear To Tread - 09 - You.wav" WAVE
INDEX 01 00:00:00
TRACK 10 AUDIO
TITLE "Sleeping Dogs"
PERFORMER "Heaven"
FLAGS DCP
INDEX 00 03:31:54
FILE "Heaven - Where Angels Fear To Tread - 10 - Sleeping Dogs.wav" WAVE
INDEX 01 00:00:00
TRACK 11 AUDIO
TITLE "Boy's Night Out"
PERFORMER "Heaven"
FLAGS DCP
INDEX 00 03:03:41
FILE "Heaven - Where Angels Fear To Tread - 11 - Boy's Night Out.wav" WAVE
INDEX 01 00:00:00
TRACK 12 AUDIO
TITLE "Take You Higher (Live)"
PERFORMER "Heaven"
FLAGS DCP
INDEX 00 03:36:32
FILE "Heaven - Where Angels Fear To Tread - 12 - Take You Higher (Live).wav" WAVE
INDEX 01 00:00:00
FILE "Heaven - Where Angels Fear To Tread - 13 - Suck City (Live).wav" WAVE
TRACK 13 AUDIO
TITLE "Suck City (Live)"
PERFORMER "Heaven"
FLAGS DCP
INDEX 01 00:00:00
FILE "Heaven - Where Angels Fear To Tread - 14 - Scream For Me (Live).wav" WAVE
TRACK 14 AUDIO
TITLE "Scream For Me (Live)"
PERFORMER "Heaven"
FLAGS DCP
INDEX 01 00:00:00
FILE "Heaven - Where Angels Fear To Tread - 15 - Don't Mean Nothin' (Live).wav" WAVE
TRACK 15 AUDIO
TITLE "Don't Mean Nothin' (Live)"
PERFORMER "Heaven"
FLAGS DCP
INDEX 01 00:00:00
FILE "Heaven - Where Angels Fear To Tread - 16 - Sleeping Dogs (Live).wav" WAVE
TRACK 16 AUDIO
TITLE "Sleeping Dogs (Live)"
PERFORMER "Heaven"
FLAGS DCP
INDEX 01 00:00:00


Top
 Profile  
 
 
PostPosted: 13 Aug 2009 
Хиппей (support team)
User avatar
Joined: 30 Jul 2007
Posts: 103633
Lоcаtion: Киев (Kyiv, UA)
Age: 44
Name: Andrey
oldrocker wrote:
Прослушал трек 16, все нормально, никаких сбоев нет. Посмотрел статистику, альбом 18 раз скачан, первая претензия. Прежде чем заливать альбом, созданный архив я распаковываю у себя, проверяю на предмет таких ошибок.

Как обычно, я пока не слушал. Скорее всего иностранный товарищ качал криво :pardon:

_________________


Top
 Profile E-mail  
 
 
PostPosted: 13 Aug 2009 
дядя Миша
User avatar
Joined: 17 Oct 2008
Posts: 2966
Lоcаtion: USSR
Age: 55
Name: Khy
CUE нужен от 1982 года , если не трудно и он есть , то выложите.
Я попробовал скачать 1983 , скачало 99% , и 15 треков.


Top
 Profile  
 
 
PostPosted: 13 Aug 2009 
Хиппей (support team)
User avatar
Joined: 30 Jul 2007
Posts: 103633
Lоcаtion: Киев (Kyiv, UA)
Age: 44
Name: Andrey
VARVAAR wrote:
скачало 99%

Не пойму, чем и как вы качаете? :dash:

_________________


Top
 Profile E-mail  
 
 
PostPosted: 13 Aug 2009 
хард н хэвщик (support team)
User avatar
Joined: 02 Jun 2008
Posts: 16880
Lоcаtion: Н.Новгород
Age: 31
Name: Артем
VARVAAR wrote:
Я попробовал скачать 1983 , скачало 99% , и 15 треков.

если происходит стопор загрузки на 99%, приостанавливайте загрузку, открываете браузер, берете еще раз прямую ссылку на файл и обновялете прежнюю ссылку в даунлоад мастере.


Top
 Profile  
 
 
PostPosted: 13 Aug 2009 
дядя Миша
User avatar
Joined: 17 Oct 2008
Posts: 2966
Lоcаtion: USSR
Age: 55
Name: Khy
я качаю Flash get. - ом.
Всяко пробовал , обновлял и.т.д. , всё одно 99 и гутбай.
CUE 1982 года выложите?


Top
 Profile  
 
 
PostPosted: 13 Aug 2009 
Old Time Rock`n`Roll
User avatar
Joined: 23 Jun 2008
Posts: 3335
Lоcаtion: г.Ульяновск
Age: 39
Name: Константин
cue
REM GENRE "Heavy Metal"
REM DATE 1982
REM DISCID 8108D00A
REM COMMENT "ExactAudioCopy v0.99pb4"
PERFORMER "Heaven"
TITLE "Bent"
FILE "Heaven - Bent - 01 - Fantasy.wav" WAVE
TRACK 01 AUDIO
TITLE "Fantasy"
PERFORMER "Heaven"
INDEX 01 00:00:00
FILE "Heaven - Bent - 02 - Nothing To Lose.wav" WAVE
TRACK 02 AUDIO
TITLE "Nothing To Lose"
PERFORMER "Heaven"
INDEX 01 00:00:00
FILE "Heaven - Bent - 03 - Take You Higher.wav" WAVE
TRACK 03 AUDIO
TITLE "Take You Higher"
PERFORMER "Heaven"
INDEX 01 00:00:00
FILE "Heaven - Bent - 04 - Storm.wav" WAVE
TRACK 04 AUDIO
TITLE "Storm"
PERFORMER "Heaven"
INDEX 01 00:00:00
FILE "Heaven - Bent - 05 - One Nighter.wav" WAVE
TRACK 05 AUDIO
TITLE "One Nighter"
PERFORMER "Heaven"
INDEX 01 00:00:00
FILE "Heaven - Bent - 06 - In The Beginning.wav" WAVE
TRACK 06 AUDIO
TITLE "In The Beginning"
PERFORMER "Heaven"
INDEX 01 00:00:00
FILE "Heaven - Bent - 07 - No One Knows.wav" WAVE
TRACK 07 AUDIO
TITLE "No One Knows"
PERFORMER "Heaven"
INDEX 01 00:00:00
FILE "Heaven - Bent - 08 - The Ballad.wav" WAVE
TRACK 08 AUDIO
TITLE "The Ballad"
PERFORMER "Heaven"
INDEX 01 00:00:00
FILE "Heaven - Bent - 09 - Get A Move On.wav" WAVE
TRACK 09 AUDIO
TITLE "Get A Move On"
PERFORMER "Heaven"
INDEX 01 00:00:00
FILE "Heaven - Bent - 10 - Suck City.wav" WAVE
TRACK 10 AUDIO
TITLE "Suck City"
PERFORMER "Heaven"
INDEX 01 00:00:00


Top
 Profile  
 
 
PostPosted: 14 Jul 2011 
Я набрал 1000 сообщений!
Joined: 24 Oct 2009
Posts: 1949
Lоcаtion: Оренбург
Age: 54
Name: Юра
Quote:
Если все равно интересует кого-то альбом, я новость оформлю и выложу ссылки.

Итересует, интересует... :crazy: Когда увидим?

_________________
:dash: I am happy!


Top
 Profile E-mail  
 
 
PostPosted: 14 Jul 2011 
Old Time Rock`n`Roll
User avatar
Joined: 23 Jun 2008
Posts: 3335
Lоcаtion: г.Ульяновск
Age: 39
Name: Константин
Сделаем.


Top
 Profile  
 
 
PostPosted: 14 Jul 2011 
Old Time Rock`n`Roll
User avatar
Joined: 23 Jun 2008
Posts: 3335
Lоcаtion: г.Ульяновск
Age: 39
Name: Константин
Heaven - Knockin On Heavens Door (1985)

Image

Genre: Traditional Heavy Metal, Hard`n`Heavy
Country: Australia
Format: FLAC (tracks+cue+log) + scans
Size: 531 Mb

FLAC
mega-1
mega=2

Log
Exact Audio Copy V0.99 prebeta 4 from 23. January 2008

EAC extraction logfile from 15. July 2009, 20:46

Heaven / Knockin' On Heaven's Door

Used drive : HL-DT-STDVDRAM GSA-4084N Adapter: 0 ID: 0

Read mode : Secure
Utilize accurate stream : Yes
Defeat audio cache : Yes
Make use of C2 pointers : No

Read offset correction : 6
Overread into Lead-In and Lead-Out : No
Fill up missing offset samples with silence : Yes
Delete leading and trailing silent blocks : No
Null samples used in CRC calculations : Yes
Used interface : Native Win32 interface for Win NT & 2000
Gap handling : Appended to previous track

Used output format : Internal WAV Routines
Sample format : 44.100 Hz; 16 Bit; Stereo


TOC of the extracted CD

Track | Start | Length | Start sector | End sector
---------------------------------------------------------
1 | 0:00.00 | 3:55.55 | 0 | 17679
2 | 3:55.55 | 3:58.54 | 17680 | 35583
3 | 7:54.34 | 4:31.65 | 35584 | 55973
4 | 12:26.24 | 4:55.34 | 55974 | 78132
5 | 17:21.58 | 3:53.71 | 78133 | 95678
6 | 21:15.54 | 4:22.68 | 95679 | 115396
7 | 25:38.47 | 4:59.52 | 115397 | 137873
8 | 30:38.24 | 5:20.11 | 137874 | 161884
9 | 35:58.35 | 4:14.66 | 161885 | 181000
10 | 40:13.26 | 4:22.51 | 181001 | 200701
11 | 44:36.02 | 4:37.33 | 200702 | 221509
12 | 49:13.35 | 4:11.59 | 221510 | 240393
13 | 53:25.19 | 4:18.53 | 240394 | 259796
14 | 57:43.72 | 5:41.46 | 259797 | 285417
15 | 63:25.43 | 3:52.69 | 285418 | 302886
16 | 67:18.37 | 4:21.28 | 302887 | 322489


Track 1

Filename D:\musik\wav\Heaven - Knockin' On Heaven's Door - 01 - Show On The Road.wav

Pre-gap length 0:00:02.00

Peak level 98.9 %
Track quality 100.0 %
Test CRC 903F666D
Copy CRC 903F666D
Copy OK

Track 2

Filename D:\musik\wav\Heaven - Knockin' On Heaven's Door - 02 - Wind Of An Eye.wav

Peak level 98.9 %
Track quality 99.9 %
Test CRC 599BBC31
Copy CRC 599BBC31
Copy OK

Track 3

Filename D:\musik\wav\Heaven - Knockin' On Heaven's Door - 03 - Knockin' On Heaven's Door.wav

Peak level 98.9 %
Track quality 100.0 %
Test CRC 85567966
Copy CRC 85567966
Copy OK

Track 4

Filename D:\musik\wav\Heaven - Knockin' On Heaven's Door - 04 - No Turning Back.wav

Peak level 98.9 %
Track quality 100.0 %
Test CRC 8DB47152
Copy CRC 8DB47152
Copy OK

Track 5

Filename D:\musik\wav\Heaven - Knockin' On Heaven's Door - 05 - Last Laugh.wav

Peak level 98.9 %
Track quality 100.0 %
Test CRC C82459E4
Copy CRC C82459E4
Copy OK

Track 6

Filename D:\musik\wav\Heaven - Knockin' On Heaven's Door - 06 - Burn.wav

Peak level 98.9 %
Track quality 100.0 %
Test CRC 480C13F0
Copy CRC 480C13F0
Copy OK

Track 7

Filename D:\musik\wav\Heaven - Knockin' On Heaven's Door - 07 - Keep The Fire.wav

Peak level 98.8 %
Track quality 100.0 %
Test CRC 5E6737BF
Copy CRC 5E6737BF
Copy OK

Track 8

Filename D:\musik\wav\Heaven - Knockin' On Heaven's Door - 08 - Without Your Love.wav

Peak level 98.9 %
Track quality 100.0 %
Test CRC 93855194
Copy CRC 93855194
Copy OK

Track 9

Filename D:\musik\wav\Heaven - Knockin' On Heaven's Door - 09 - No Where To Run.wav

Peak level 98.9 %
Track quality 100.0 %
Test CRC 14555D5E
Copy CRC 14555D5E
Copy OK

Track 10

Filename D:\musik\wav\Heaven - Knockin' On Heaven's Door - 10 - Rock On.wav

Peak level 98.9 %
Track quality 99.9 %
Test CRC A50E17BE
Copy CRC A50E17BE
Copy OK

Track 11

Filename D:\musik\wav\Heaven - Knockin' On Heaven's Door - 11 - Hard Life - Live.wav

Peak level 98.9 %
Track quality 100.0 %
Test CRC D8C6C776
Copy CRC D8C6C776
Copy OK

Track 12

Filename D:\musik\wav\Heaven - Knockin' On Heaven's Door - 12 - Where Angels Fear To Tread - Live.wav

Peak level 98.9 %
Track quality 100.0 %
Test CRC CF8D56D3
Copy CRC CF8D56D3
Copy OK

Track 13

Filename D:\musik\wav\Heaven - Knockin' On Heaven's Door - 13 - Love Child - Live.wav

Peak level 99.8 %
Track quality 100.0 %
Test CRC 4D278A32
Copy CRC 4D278A32
Copy OK

Track 14

Filename D:\musik\wav\Heaven - Knockin' On Heaven's Door - 14 - In The Beginning - Live.wav

Peak level 99.3 %
Track quality 99.9 %
Test CRC 5B57D630
Copy CRC 5B57D630
Copy OK

Track 15

Filename D:\musik\wav\Heaven - Knockin' On Heaven's Door - 15 - Madness - Live.wav

Pre-gap length 0:00:01.43

Peak level 99.9 %
Track quality 100.0 %
Test CRC 4269476A
Copy CRC 4269476A
Copy OK

Track 16

Filename D:\musik\wav\Heaven - Knockin' On Heaven's Door - 16 - Rock School - Live.wav

Peak level 99.8 %
Track quality 100.0 %
Test CRC 3DA338FE
Copy CRC 3DA338FE
Copy OK

No errors occurred

End of status report


Cue
REM GENRE "General Rock"
REM DATE 1986
REM DISCID DB10CB10
REM COMMENT "ExactAudioCopy v0.99pb4"
PERFORMER "Heaven"
TITLE "Knockin' On Heaven's Door"
FILE "Heaven - Knockin' On Heaven's Door - 01 - Show On The Road.wav" WAVE
TRACK 01 AUDIO
TITLE "Show On The Road"
PERFORMER "Heaven"
FLAGS DCP
INDEX 01 00:00:00
FILE "Heaven - Knockin' On Heaven's Door - 02 - Wind Of An Eye.wav" WAVE
TRACK 02 AUDIO
TITLE "Wind Of An Eye"
PERFORMER "Heaven"
FLAGS DCP
INDEX 01 00:00:00
FILE "Heaven - Knockin' On Heaven's Door - 03 - Knockin' On Heaven's Door.wav" WAVE
TRACK 03 AUDIO
TITLE "Knockin' On Heaven's Door"
PERFORMER "Heaven"
FLAGS DCP
INDEX 01 00:00:00
FILE "Heaven - Knockin' On Heaven's Door - 04 - No Turning Back.wav" WAVE
TRACK 04 AUDIO
TITLE "No Turning Back"
PERFORMER "Heaven"
FLAGS DCP
INDEX 01 00:00:00
FILE "Heaven - Knockin' On Heaven's Door - 05 - Last Laugh.wav" WAVE
TRACK 05 AUDIO
TITLE "Last Laugh"
PERFORMER "Heaven"
FLAGS DCP
INDEX 01 00:00:00
FILE "Heaven - Knockin' On Heaven's Door - 06 - Burn.wav" WAVE
TRACK 06 AUDIO
TITLE "Burn"
PERFORMER "Heaven"
FLAGS DCP
INDEX 01 00:00:00
FILE "Heaven - Knockin' On Heaven's Door - 07 - Keep The Fire.wav" WAVE
TRACK 07 AUDIO
TITLE "Keep The Fire"
PERFORMER "Heaven"
FLAGS DCP
INDEX 01 00:00:00
FILE "Heaven - Knockin' On Heaven's Door - 08 - Without Your Love.wav" WAVE
TRACK 08 AUDIO
TITLE "Without Your Love"
PERFORMER "Heaven"
FLAGS DCP
INDEX 01 00:00:00
FILE "Heaven - Knockin' On Heaven's Door - 09 - No Where To Run.wav" WAVE
TRACK 09 AUDIO
TITLE "No Where To Run"
PERFORMER "Heaven"
FLAGS DCP
INDEX 01 00:00:00
FILE "Heaven - Knockin' On Heaven's Door - 10 - Rock On.wav" WAVE
TRACK 10 AUDIO
TITLE "Rock On"
PERFORMER "Heaven"
FLAGS DCP
INDEX 01 00:00:00
FILE "Heaven - Knockin' On Heaven's Door - 11 - Hard Life - Live.wav" WAVE
TRACK 11 AUDIO
TITLE "Hard Life - Live"
PERFORMER "Heaven"
FLAGS DCP
INDEX 01 00:00:00
FILE "Heaven - Knockin' On Heaven's Door - 12 - Where Angels Fear To Tread - Live.wav" WAVE
TRACK 12 AUDIO
TITLE "Where Angels Fear To Tread - Live"
PERFORMER "Heaven"
FLAGS DCP
INDEX 01 00:00:00
FILE "Heaven - Knockin' On Heaven's Door - 13 - Love Child - Live.wav" WAVE
TRACK 13 AUDIO
TITLE "Love Child - Live"
PERFORMER "Heaven"
FLAGS DCP
INDEX 01 00:00:00
FILE "Heaven - Knockin' On Heaven's Door - 14 - In The Beginning - Live.wav" WAVE
TRACK 14 AUDIO
TITLE "In The Beginning - Live"
PERFORMER "Heaven"
FLAGS DCP
INDEX 01 00:00:00
TRACK 15 AUDIO
TITLE "Madness - Live"
PERFORMER "Heaven"
FLAGS DCP
INDEX 00 05:40:03
FILE "Heaven - Knockin' On Heaven's Door - 15 - Madness - Live.wav" WAVE
INDEX 01 00:00:00
FILE "Heaven - Knockin' On Heaven's Door - 16 - Rock School - Live.wav" WAVE
TRACK 16 AUDIO
TITLE "Rock School - Live"
PERFORMER "Heaven"
FLAGS DCP
INDEX 01 00:00:00


В первой ссылке собственно альбом, во второй лайвовые бонусы с артефактами. Судя по фигуристому ангелу речь действительно идет о рае :crazy: .
Рип все того же шведского товарища Trolle


Top
 Profile  
 
 
PostPosted: 14 Jul 2011 
А может смените мне статус?..
Joined: 03 Jul 2009
Posts: 762
Lоcаtion: Serbia
Name: Laki
Thanks


Top
 Profile E-mail  
 
 
PostPosted: 15 Jul 2011 
Я набрал 1000 сообщений!
Joined: 24 Oct 2009
Posts: 1949
Lоcаtion: Оренбург
Age: 54
Name: Юра
Спасибо Большое!
Ищу уже с год наверное... :kuval:

_________________
:dash: I am happy!


Top
 Profile E-mail  
 
 
PostPosted: 15 Jul 2011 
Персональный статус
Joined: 02 Apr 2010
Posts: 223
Name: Андрей
Тоже пожалуй заберу, Спасибо!


Top
 Profile  
 
 
PostPosted: 19 Jul 2011 
Хиппей (support team)
User avatar
Joined: 30 Jul 2007
Posts: 103633
Lоcаtion: Киев (Kyiv, UA)
Age: 44
Name: Andrey
:thanx:
mirror (2 in 1): F-Bit l Narod

Heaven - 1985 - Knockin On Heavens Door [flacs]


ImageImageImage
ImageImage

_________________


Top
 Profile E-mail  
 
 
PostPosted: 19 Jul 2011 
спирт 100%
User avatar
Joined: 22 Sep 2008
Posts: 4209
Age: 46
Name: Саня
:thanx: Спасибо!


Top
 Profile  
 
 
PostPosted: 22 Jul 2011 
Почётный металлург
User avatar
Joined: 15 Sep 2007
Posts: 4357
Lоcаtion: Хабаровск
Age: 58
Name: чуть выше
Забираю усе. Горячо сенкую, Костя! :thanx:

_________________
Коль будешь людей ты ослами честить,
тебе человеком меж них не прослыть!
(Саади, персидский поэт, 13в.)


Top
 Profile  
 
 
PostPosted: 30 Jul 2011 
Хиппей (support team)
User avatar
Joined: 30 Jul 2007
Posts: 103633
Lоcаtion: Киев (Kyiv, UA)
Age: 44
Name: Andrey
oldrocker wrote:
Heaven - Knockin On Heavens Door (1985)

Как-то вообще не пошёл мне этот сборный альбом :fingal:
Вроде и активно ребяты играют и поют, а совершенно не зацепило. Хард-рок с глэмом, вообще ничего особенного и своего у группы не удалось расслышать :vic:

4/10

_________________


Top
 Profile E-mail  
 
Display posts from previous:  Sort by  
Post new topic Reply to topic  [ 53 posts ]  Go to page Previous  1, 2, 3  Next

All times are UTC + 3 hours


Who is online

Users browsing this forum: No registered users and 1 guest


You cannot post new topics in this forum
You cannot reply to topics in this forum
You cannot edit your posts in this forum
You cannot delete your posts in this forum
You cannot post attachments in this forum

Search for:
Яндекс.Метрика
Powered by phpBB © 2000, 2002, 2005, 2007 phpBB Group