\m/ 80's metal \m/

Информационно-аналитический форум "80 см пыли" (In Search We Trust) "У нас никто никуда не спешит"
Me For You - http://me-4u.com
It is currently 21 Sep 2018

All times are UTC + 3 hours

Spoiler
Chat - temporary registration for foreign users (please leave your application here)







Post new topic Reply to topic  [ 53 posts ]  Go to page 1, 2, 3  Next
Author Message
 
PostPosted: 09 Aug 2009 
Old Time Rock`n`Roll
User avatar
Joined: 23 Jun 2008
Posts: 3354
Lоcаtion: г.Ульяновск
Age: 40
Name: Константин
Heaven (Australia) – Bent (1982) + Where Angels Fear To Tread (1983)

Image

Genre: Hard Rock, Hard`n`Heavy
Country: Australia
Format: FLAC, cue+log+сканы & mp-320
Size: 257 Mb + 416Mb / 90 Mb + 150 Mb

Heaven (Australia) – Bent (1982)

Image

Tracklist:
01. Fantasy (3:21)
02. Nothing To Lose (3:30)
03. Take You Higher (3:33)
04. Storm (2:59)
05. One Nighter (2:52)
06. In The Beginning (4:00)
07. No One Knows (2:48)
08. The Ballad (5:54)
09. Get A Move On (4:15)
10. Suck City (4:20)

TPT – 37:36

Line-Up:
Alan Fryer Vocals
Bradford Kelly Guitar
Joe Turtur Drums
John Haese Guitar
Laurie Marlow Bass

Album Credits:
Produced: John Bee
Produced: Kevin Stanton # 6
Engineered: John Bee
Engineered: Richard Lush # 6

Cпектры

Image

Лог
Exact Audio Copy V0.99 prebeta 4 from 23. January 2008

EAC extraction logfile from 15. July 2009, 10:14

Heaven / Bent

Used drive : HL-DT-STDVDRAM GSA-4084N Adapter: 0 ID: 0

Read mode : Secure
Utilize accurate stream : Yes
Defeat audio cache : Yes
Make use of C2 pointers : No

Read offset correction : 6
Overread into Lead-In and Lead-Out : No
Fill up missing offset samples with silence : Yes
Delete leading and trailing silent blocks : No
Null samples used in CRC calculations : Yes
Used interface : Native Win32 interface for Win NT & 2000
Gap handling : Appended to previous track

Used output format : Internal WAV Routines
Sample format : 44.100 Hz; 16 Bit; Stereo


TOC of the extracted CD

Track | Start | Length | Start sector | End sector
---------------------------------------------------------
1 | 0:00.00 | 3:21.10 | 0 | 15084
2 | 3:21.10 | 3:30.53 | 15085 | 30887
3 | 6:51.63 | 3:33.37 | 30888 | 46899
4 | 10:25.25 | 2:59.68 | 46900 | 60392
5 | 13:25.18 | 2:52.72 | 60393 | 73364
6 | 16:18.15 | 4:00.17 | 73365 | 91381
7 | 20:18.32 | 2:48.30 | 91382 | 104011
8 | 23:06.62 | 5:54.27 | 104012 | 130588
9 | 29:01.14 | 4:15.12 | 130589 | 149725
10 | 33:16.26 | 4:20.35 | 149726 | 169260


Track 1

Filename D:\musik\wav\Heaven - Bent - 01 - Fantasy.wav

Pre-gap length 0:00:02.00

Peak level 100.0 %
Track quality 100.0 %
Test CRC 27F4D781
Copy CRC 27F4D781
Copy OK

Track 2

Filename D:\musik\wav\Heaven - Bent - 02 - Nothing To Lose.wav

Peak level 100.0 %
Track quality 100.0 %
Test CRC D9C3EFCD
Copy CRC D9C3EFCD
Copy OK

Track 3

Filename D:\musik\wav\Heaven - Bent - 03 - Take You Higher.wav

Peak level 100.0 %
Track quality 99.9 %
Test CRC 09B56D11
Copy CRC 09B56D11
Copy OK

Track 4

Filename D:\musik\wav\Heaven - Bent - 04 - Storm.wav

Peak level 100.0 %
Track quality 100.0 %
Test CRC F32A3BA7
Copy CRC F32A3BA7
Copy OK

Track 5

Filename D:\musik\wav\Heaven - Bent - 05 - One Nighter.wav

Peak level 100.0 %
Track quality 100.0 %
Test CRC 9722A076
Copy CRC 9722A076
Copy OK

Track 6

Filename D:\musik\wav\Heaven - Bent - 06 - In The Beginning.wav

Peak level 100.0 %
Track quality 100.0 %
Test CRC FE7E104D
Copy CRC FE7E104D
Copy OK

Track 7

Filename D:\musik\wav\Heaven - Bent - 07 - No One Knows.wav

Peak level 100.0 %
Track quality 100.0 %
Test CRC 02675243
Copy CRC 02675243
Copy OK

Track 8

Filename D:\musik\wav\Heaven - Bent - 08 - The Ballad.wav

Peak level 100.0 %
Track quality 100.0 %
Test CRC FF39731B
Copy CRC FF39731B
Copy OK

Track 9

Filename D:\musik\wav\Heaven - Bent - 09 - Get A Move On.wav

Peak level 100.0 %
Track quality 100.0 %
Test CRC 95A33BED
Copy CRC 95A33BED
Copy OK

Track 10

Filename D:\musik\wav\Heaven - Bent - 10 - Suck City.wav

Peak level 100.0 %
Track quality 100.0 %
Test CRC 4212276B
Copy CRC 4212276B
Copy OK

No errors occurred

End of status report

FLAC
narod

mp3-320
megaupload



Heaven (Australia) – Where Angels Fear To Tread (1983)

Image

Tracklist:
01. Where Angels Fear To Tread (3:49)
02. Love Child (3:49)
03. Scream For Me (3:42)
04. Don't Mean Nothin' (3:55)
05. Rock School (4:19)
06. Madness (3:21)
07. Hard Life (4:01)
08. She Stole My Heart (3:50)
09. You (3:29)
10. Sleeping Dogs (3:00)
11. Boy's Night Out
12. Take You Higher (Live)
13. Suck City (Live)
14. Scream For Me (Live)
15. Don't Mean Nothin' (Live)
16. Sleeping Dogs (Live)


TPT – 60:47

Line-Up:
Allan Fryer Vocals
Bradford Kelly Guitar
Joe Turtur Drums
Laurie Marlow Bass
Mick Cocks Guitar

Album Credits:
Produced: George Tutko
Engineered: George Tutko

Additional Players:
Glen Hughes Backing Vocals
Lita Ford Backing Vocals
Ronnie James Dio Backing Vocals
Julia Burley Backing Vocals
Joe Lynn Turner Drums
Jimmy Zazla Sax

Спектры

Image

Лог
Exact Audio Copy V0.99 prebeta 4 from 23. January 2008

EAC extraction logfile from 15. July 2009, 12:07

Heaven / Where Angels Fear To Tread

Used drive : HL-DT-STDVDRAM GSA-4084N Adapter: 0 ID: 0

Read mode : Secure
Utilize accurate stream : Yes
Defeat audio cache : Yes
Make use of C2 pointers : No

Read offset correction : 6
Overread into Lead-In and Lead-Out : No
Fill up missing offset samples with silence : Yes
Delete leading and trailing silent blocks : No
Null samples used in CRC calculations : Yes
Used interface : Native Win32 interface for Win NT & 2000
Gap handling : Appended to previous track

Used output format : Internal WAV Routines
Sample format : 44.100 Hz; 16 Bit; Stereo


TOC of the extracted CD

Track | Start | Length | Start sector | End sector
---------------------------------------------------------
1 | 0:00.00 | 3:54.42 | 0 | 17591
2 | 3:54.42 | 3:54.58 | 17592 | 35199
3 | 7:49.25 | 3:47.53 | 35200 | 52277
4 | 11:37.03 | 3:59.51 | 52278 | 70253
5 | 15:36.54 | 4:24.32 | 70254 | 90085
6 | 20:01.11 | 3:26.28 | 90086 | 105563
7 | 23:27.39 | 4:07.35 | 105564 | 124123
8 | 27:34.74 | 3:55.62 | 124124 | 141810
9 | 31:30.61 | 3:33.54 | 141811 | 157839
10 | 35:04.40 | 3:05.41 | 157840 | 171755
11 | 38:10.06 | 3:38.32 | 171756 | 188137
12 | 41:48.38 | 3:28.61 | 188138 | 203798
13 | 45:17.24 | 4:11.68 | 203799 | 222691
14 | 49:29.17 | 4:10.44 | 222692 | 241485
15 | 53:39.61 | 4:02.11 | 241486 | 259646
16 | 57:41.72 | 3:05.40 | 259647 | 273561


Track 1

Filename D:\musik\wav\Heaven - Where Angels Fear To Tread - 01 - Where Angels Fear To Tread.wav

Pre-gap length 0:00:02.00

Peak level 85.9 %
Track quality 100.0 %
Test CRC 5B76A698
Copy CRC 5B76A698
Copy OK

Track 2

Filename D:\musik\wav\Heaven - Where Angels Fear To Tread - 02 - Love Child.wav

Peak level 85.9 %
Track quality 99.9 %
Test CRC 9AB331CE
Copy CRC 9AB331CE
Copy OK

Track 3

Filename D:\musik\wav\Heaven - Where Angels Fear To Tread - 03 - Scream For Me.wav

Pre-gap length 0:00:01.55

Peak level 85.9 %
Track quality 100.0 %
Test CRC 94914188
Copy CRC 94914188
Copy OK

Track 4

Filename D:\musik\wav\Heaven - Where Angels Fear To Tread - 04 - Don't Mean Nothin'.wav

Pre-gap length 0:00:01.39

Peak level 85.9 %
Track quality 100.0 %
Test CRC 592BF21B
Copy CRC 592BF21B
Copy OK

Track 5

Filename D:\musik\wav\Heaven - Where Angels Fear To Tread - 05 - Rock School.wav

Pre-gap length 0:00:01.60

Peak level 85.9 %
Track quality 100.0 %
Test CRC 508AC336
Copy CRC 508AC336
Copy OK

Track 6

Filename D:\musik\wav\Heaven - Where Angels Fear To Tread - 06 - Madness.wav

Pre-gap length 0:00:02.00

Peak level 85.9 %
Track quality 100.0 %
Test CRC 8A80CA2F
Copy CRC 8A80CA2F
Copy OK

Track 7

Filename D:\musik\wav\Heaven - Where Angels Fear To Tread - 07 - Hard Life.wav

Pre-gap length 0:00:02.00

Peak level 85.9 %
Track quality 100.0 %
Test CRC 5D2FA490
Copy CRC 5D2FA490
Copy OK

Track 8

Filename D:\musik\wav\Heaven - Where Angels Fear To Tread - 08 - She Stole My Heart.wav

Pre-gap length 0:00:01.73

Peak level 85.9 %
Track quality 100.0 %
Test CRC 908BE436
Copy CRC 908BE436
Copy OK

Track 9

Filename D:\musik\wav\Heaven - Where Angels Fear To Tread - 09 - You.wav

Pre-gap length 0:00:01.52

Peak level 85.9 %
Track quality 100.0 %
Test CRC 2FD9F161
Copy CRC 2FD9F161
Copy OK

Track 10

Filename D:\musik\wav\Heaven - Where Angels Fear To Tread - 10 - Sleeping Dogs.wav

Pre-gap length 0:00:02.00

Peak level 85.9 %
Track quality 100.0 %
Test CRC 5BFFB598
Copy CRC 5BFFB598
Copy OK

Track 11

Filename D:\musik\wav\Heaven - Where Angels Fear To Tread - 11 - Boy's Night Out.wav

Pre-gap length 0:00:02.00

Peak level 89.7 %
Track quality 100.0 %
Test CRC E4A89D05
Copy CRC E4A89D05
Copy OK

Track 12

Filename D:\musik\wav\Heaven - Where Angels Fear To Tread - 12 - Take You Higher (Live).wav

Pre-gap length 0:00:02.00

Peak level 100.0 %
Track quality 100.0 %
Test CRC AEE3A25B
Copy CRC AEE3A25B
Copy OK

Track 13

Filename D:\musik\wav\Heaven - Where Angels Fear To Tread - 13 - Suck City (Live).wav

Peak level 99.7 %
Track quality 100.0 %
Test CRC 5301FD2D
Copy CRC 5301FD2D
Copy OK

Track 14

Filename D:\musik\wav\Heaven - Where Angels Fear To Tread - 14 - Scream For Me (Live).wav

Peak level 99.8 %
Track quality 100.0 %
Test CRC 68E2F283
Copy CRC 68E2F283
Copy OK

Track 15

Filename D:\musik\wav\Heaven - Where Angels Fear To Tread - 15 - Don't Mean Nothin' (Live).wav

Peak level 99.8 %
Track quality 100.0 %
Test CRC 1733295E
Copy CRC 1733295E
Copy OK

Track 16

Filename D:\musik\wav\Heaven - Where Angels Fear To Tread - 16 - Sleeping Dogs (Live).wav

Peak level 99.8 %
Track quality 100.0 %
Test CRC 4B070D4D
Copy CRC 4B070D4D
Copy OK

No errors occurred

End of status report



FLAC
narod

mp3-320
megaupload


По слухам вокалист группы Алан Фрайер рассматривался в свое время как возможный вариант замены Бону Скотту, но в итоге получился австралийский Крокус.
За рип спасибо товарищу Trolle из солнечной Швеции.


Last edited by oldrocker on 14 Jul 2011, edited 3 times in total.

Top
 Profile  
 
 
PostPosted: 09 Aug 2009 
Почётный металлург
User avatar
Joined: 15 Sep 2007
Posts: 4357
Lоcаtion: Хабаровск
Age: 58
Name: чуть выше
Спасибо, Костя! :thanx: :true:

_________________
Коль будешь людей ты ослами честить,
тебе человеком меж них не прослыть!
(Саади, персидский поэт, 13в.)


Top
 Profile  
 
 
PostPosted: 09 Aug 2009 
5cm
User avatar
Joined: 05 May 2009
Posts: 52
Lоcаtion: Kherson
Age: 47
Name: Oleg
Cпасибоньки! Таких людей на бэк вокал собрали .


Top
 Profile E-mail  
 
 
PostPosted: 09 Aug 2009 
Хиппей (support team)
User avatar
Joined: 30 Jul 2007
Posts: 106380
Lоcаtion: Киев (Kyiv, UA)
Age: 45
Name: Andrey
Many thanx, Kostya :true:

_________________


Top
 Profile E-mail  
 
 
PostPosted: 09 Aug 2009 
труъ антисионист
User avatar
Joined: 01 Aug 2007
Posts: 4541
Lоcаtion: Откуда и большинство из нас
Age: 37
Name: Дядя Вова
Незнаю кто такие, но всёравно заберу, спасибо!

_________________
Image
Image


Top
 Profile  
 
 
PostPosted: 09 Aug 2009 
Труъ
User avatar
Joined: 14 Jul 2009
Posts: 158
Lоcаtion: Hell Is Here
Age: 48
Name: Adriano
oldrocker, Thank You Very much !! :drink:


Top
 Profile E-mail  
 
 
PostPosted: 09 Aug 2009 
хард н хэвщик (support team)
User avatar
Joined: 02 Jun 2008
Posts: 16880
Lоcаtion: Н.Новгород
Age: 31
Name: Артем
Кажется, у меня в лосях еще ничего не было. спасибо!


Top
 Profile  
 
 
PostPosted: 10 Aug 2009 
5cm
User avatar
Joined: 05 May 2009
Posts: 52
Lоcаtion: Kherson
Age: 47
Name: Oleg
Незнаю . прилично или нет. но просьба . Братва отзеркальте куда нибудь с энтого гребаного народа .за сутки - Bent скачал с хрен знай какой попытки .клевый альбом.а вот Where Angels Fear To Tread хотелось бы очень .


Top
 Profile E-mail  
 
 
PostPosted: 10 Aug 2009 
Old Time Rock`n`Roll
User avatar
Joined: 23 Jun 2008
Posts: 3354
Lоcаtion: г.Ульяновск
Age: 40
Name: Константин
Хм,ironbaback, у меня туго с зеркалами, кое-как с рапиды получаться стало через спец.программу, а с фолдером никак отзеркаливание не идет. Чем еще зеркалить-то можно?
По поводу Heaven, есть еще в лосях последний альбом группы 1985 г., я его уже кстати давно залил, но у него как оказалось все лайвы-бонусы с помехами идут, это раз, второе, на основном материале альбома на последней композиции (9-й, трек- No Where To Run) последние секунд 15-20 щелчки-цоконье идет.
Если все равно интересует кого-то альбом, я новость оформлю и выложу ссылки.


Top
 Profile  
 
 
PostPosted: 11 Aug 2009 
Хиппей (support team)
User avatar
Joined: 30 Jul 2007
Posts: 106380
Lоcаtion: Киев (Kyiv, UA)
Age: 45
Name: Andrey
Как скачаю, попробую озеркалить. Главное не забыть.
А что там не так с Народом? Докачка-то наличествует :vic:

_________________


Top
 Profile E-mail  
 
 
PostPosted: 11 Aug 2009 
5cm
User avatar
Joined: 05 May 2009
Posts: 52
Lоcаtion: Kherson
Age: 47
Name: Oleg
Да незнаю проблема наверное у меня .Download Master доводит до 99% и кирдык. при разархивировании то трек последний не находит ,то сканы. и т.д. . через оперу загрузки воще кизяк доходит до 75% и останавливается и нитуды и ни сюды . Вот в двух словах какая байда у меня с народом.


Top
 Profile E-mail  
 
 
PostPosted: 11 Aug 2009 
труъ антисионист
User avatar
Joined: 01 Aug 2007
Posts: 4541
Lоcаtion: Откуда и большинство из нас
Age: 37
Name: Дядя Вова
ironbaback wrote:
Да незнаю проблема наверное у меня .Download Master доводит до 99% и кирдык. при разархивировании то трек последний не находит ,то сканы. и т.д. . через оперу загрузки воще кизяк доходит до 75% и останавливается и нитуды и ни сюды . Вот в двух словах какая байда у меня с народом.

Ага, у меня тоже частенько такая фигня бывает, даже незнаю как тебе помочь :(

_________________
Image
Image


Top
 Profile  
 
 
PostPosted: 11 Aug 2009 
Хиппей (support team)
User avatar
Joined: 30 Jul 2007
Posts: 106380
Lоcаtion: Киев (Kyiv, UA)
Age: 45
Name: Andrey
Пока вот только так получилось отзеркалить... :oops:

http://www.uafile.org/688912
http://depositfiles.com/files/85opvigsg

_________________


Top
 Profile E-mail  
 
 
PostPosted: 11 Aug 2009 
5cm
User avatar
Joined: 05 May 2009
Posts: 52
Lоcаtion: Kherson
Age: 47
Name: Oleg
Пасибо за отзывчивость!!!!!!!!!!


Top
 Profile E-mail  
 
 
PostPosted: 11 Aug 2009 
дядя Миша
User avatar
Joined: 17 Oct 2008
Posts: 3054
Lоcаtion: USSR
Age: 56
Name: Khy
Можно cue file этого альбома здесь выложить? А то у меня рип есть , но без куя.


Top
 Profile  
 
 
PostPosted: 12 Aug 2009 
А может смените мне статус?..
Joined: 03 Jul 2009
Posts: 786
Lоcаtion: Serbia
Name: Laki
Thanks for the post, Great.Just, can you re-post track 16 of the "Where Angels Fear To Tread", cause the file is corrupted, please. Thanks again!!!!


Top
 Profile E-mail  
 
 
PostPosted: 12 Aug 2009 
Хиппей (support team)
User avatar
Joined: 30 Jul 2007
Posts: 106380
Lоcаtion: Киев (Kyiv, UA)
Age: 45
Name: Andrey
Вот те и драсте...
А рип, что, потрэковый?

_________________


Top
 Profile E-mail  
 
 
PostPosted: 12 Aug 2009 
Old Time Rock`n`Roll
User avatar
Joined: 23 Jun 2008
Posts: 3354
Lоcаtion: г.Ульяновск
Age: 40
Name: Константин
Конечно, потрековый, на западе почти все лоси в потрековом виде и часто без куя-лога. Неандертальцы))
glory11
You talk about Sleeping Dogs (Live)? I `ll upload this track tonite.
VARVAAR
И куи залью, хотя их наверное проще в стронге забрать на спец.хабе данного форума.


Top
 Profile  
 
 
PostPosted: 12 Aug 2009 
Хиппей (support team)
User avatar
Joined: 30 Jul 2007
Posts: 106380
Lоcаtion: Киев (Kyiv, UA)
Age: 45
Name: Andrey
Хм, в хабе у кого куй есть? :vic:
И с последним трэком я не понял - косяк рипа или заливки. Кто-то еще слушал весь второй альбом?..

_________________


Top
 Profile E-mail  
 
 
PostPosted: 12 Aug 2009 
хард н хэвщик (support team)
User avatar
Joined: 02 Jun 2008
Posts: 16880
Lоcаtion: Н.Новгород
Age: 31
Name: Артем
Так, пока я повременю качать эти альбомы :umnik:


Top
 Profile  
 
Display posts from previous:  Sort by  
Post new topic Reply to topic  [ 53 posts ]  Go to page 1, 2, 3  Next

All times are UTC + 3 hours


Who is online

Users browsing this forum: No registered users and 2 guests


You cannot post new topics in this forum
You cannot reply to topics in this forum
You cannot edit your posts in this forum
You cannot delete your posts in this forum
You cannot post attachments in this forum

Search for:
Яндекс.Метрика
Powered by phpBB © 2000, 2002, 2005, 2007 phpBB Group