\m/ 80's metal \m/

Информационно-аналитический форум "80 см пыли" (In Search We Trust) "У нас никто никуда не спешит"
Me For You - http://me-4u.com
It is currently 21 Nov 2018

All times are UTC + 3 hours

Spoiler
Chat - temporary registration for foreign users (please leave your application here)







Post new topic Reply to topic  [ 26 posts ]  Go to page Previous  1, 2
Author Message
 
PostPosted: 27 Apr 2012 
Хиппей (support team)
User avatar
Joined: 30 Jul 2007
Posts: 108248
Lоcаtion: Киев (Kyiv, UA)
Age: 45
Name: Andrey
Strappado wrote:
Here is a 320kbps rip

mirror: MultiUp l Narod


Лось еще один тута: http://rutracker.org/forum/viewtopic.php?t=3629270

_________________


Top
 Profile E-mail  
 
 
PostPosted: 27 Apr 2012 
Хиппей (support team)
User avatar
Joined: 30 Jul 2007
Posts: 108248
Lоcаtion: Киев (Kyiv, UA)
Age: 45
Name: Andrey
Hazzard - 1984 - Hazzard [ape]

phpBB [youtube]


Лось с Рутрекера. И не факт, что не стырен отседова же :pardon: Но спасибо за сохранение альбома :thanx:

mirror: Multiup l Speedy l Narod

Мне альбом понравился. Выше среднего. Привычный мелодичный и строгий германский хэви с хорошим вокалом, инструментальными партиями и уместными бэками. Есть зачатки павера. Особенно порадовали хоральные подпевки в нетипичном трэке "Killer" :true:
На кого похоже? А вот и не пойму... На себя :vic:

7/10

log
Exact Audio Copy V0.99 prebeta 5 from 4. May 2009

Отчёт EAC об извлечении, выполненном 23. июня 2011, 17:05

Hazzard / Hazzard

Дисковод: PIONEER DVD-RW DVR-215D Adapter: 3 ID: 0

Режим чтения : Достоверность
Использование точного потока : Да
Отключение кэша аудио : Да
Использование указателей C2 : Нет

Коррекция смещения при чтении : 48
Способность читать области Lead-in и Lead-out : Нет
Заполнение пропущенных сэмплов тишиной : Да
Удаление блоков с тишиной в начале и конце : Нет
При вычислениях CRC использовались нулевые сэмплы : Да
Интерфейс : Встроенный Win32-интерфейс для Win NT/2000

Выходной формат : Внутренние WAV-операции
Формат сэмплов : 44.100 Гц; 16 бит; стерео


TOC извлечённого CD

Трек | Старт | Длительность | Начальный сектор | Конечный сектор
---------------------------------------------------------------------
1 | 0:00.00 | 3:57.35 | 0 | 17809
2 | 3:57.35 | 3:34.05 | 17810 | 33864
3 | 7:31.40 | 6:04.50 | 33865 | 61214
4 | 13:36.15 | 4:14.10 | 61215 | 80274
5 | 17:50.25 | 3:59.40 | 80275 | 98239
6 | 21:49.65 | 4:05.50 | 98240 | 116664
7 | 25:55.40 | 4:47.40 | 116665 | 138229
8 | 30:43.05 | 4:15.30 | 138230 | 157384


Характеристики диапазона извлечения и сообщения об ошибках

Выбранный диапазон

Имя файла E:\обработать\Hazzard - Hazzard.wav

Пиковый уровень 98.0 %
Качество диапазона 100.0 %
CRC копии 45E82B17
Копирование... OK

Ошибок не произошло


AccurateRip: сводка

Трек 1 нет в базе данных
Трек 2 нет в базе данных
Трек 3 нет в базе данных
Трек 4 нет в базе данных
Трек 5 нет в базе данных
Трек 6 нет в базе данных
Трек 7 нет в базе данных
Трек 8 нет в базе данных

Ни одного трека нет в базе AccurateRip

Конец отчёта

cue
REM GENRE "Heavy Metal"
REM DISCID 61083208
REM COMMENT "ExactAudioCopy v0.99pb5"
PERFORMER "Hazzard"
TITLE "Hazzard"
FILE "Hazzard - Hazzard.ape" WAVE
TRACK 01 AUDIO
TITLE "Moonlight"
PERFORMER "Hazzard"
FLAGS DCP
INDEX 01 00:00:00
TRACK 02 AUDIO
TITLE "Nothing At All"
PERFORMER "Hazzard"
FLAGS DCP
INDEX 01 03:57:35
TRACK 03 AUDIO
TITLE "Come On"
PERFORMER "Hazzard"
FLAGS DCP
INDEX 01 07:31:40
TRACK 04 AUDIO
TITLE "Just A Dream"
PERFORMER "Hazzard"
FLAGS DCP
INDEX 01 13:36:15
TRACK 05 AUDIO
TITLE "Satisfied"
PERFORMER "Hazzard"
FLAGS DCP
INDEX 01 17:50:25
TRACK 06 AUDIO
TITLE "Tonight"
PERFORMER "Hazzard"
FLAGS DCP
INDEX 01 21:49:65
TRACK 07 AUDIO
TITLE "Killer"
PERFORMER "Hazzard"
FLAGS DCP
INDEX 01 25:55:40
TRACK 08 AUDIO
TITLE "We Are The Band"
PERFORMER "Hazzard"
FLAGS DCP
INDEX 01 30:43:05

spectrum
Image

_________________


Top
 Profile E-mail  
 
 
PostPosted: 30 Oct 2013 
\m/ 80 см сала \m/
User avatar
Joined: 12 Mar 2012
Posts: 2589
Age: 25
Name: Nick
Image

Hazzard (Ger) - 1984 - Hazzard [EAC-WV + cover] by SHI (MMT)
Label: Mausoleum #704159.2 (1994 Mausoleum Classix series)
Download: Narod

_________________
1990 AUROPHON BRAINSTORM (Germany) - lossless
1994 MAUSOLEUM CLASSIX (Belgium-Germany) - lossless
1998 VA - GRIM HARVEST - Complete Metal Massacre Volumes I-XII


Top
 Profile  
 
 
PostPosted: 07 Nov 2013 
Хиппей (support team)
User avatar
Joined: 30 Jul 2007
Posts: 108248
Lоcаtion: Киев (Kyiv, UA)
Age: 45
Name: Andrey
:thanx:

mirror: Narod l M-Cloud

_________________


Top
 Profile E-mail  
 
 
PostPosted: 15 Oct 2014 
Трешер
User avatar
Joined: 25 Feb 2011
Posts: 1062
Lоcаtion: Харьков
Age: 42
Name: Aleksandr
Спасибо нужно утянуть обязательно ! :thanx:


Top
 Profile E-mail  
 
 
PostPosted: 08 Aug 2016 
Thrasher
User avatar
Joined: 07 Oct 2007
Posts: 2756
Lоcаtion: Russia, Moscow
Age: 34
Name: Drunk & Evil
:shok: :shok: :shok: :shok: :lob: :lob: :lob: :lob:



А альбом - пушка!!! Несколько лет тащит и тащит от него.

_________________
ВОДКА, БАБЫ И БЛЮЗ / 40° till death... :bodun:
One time we saw some hookers, but when we got closer, we realised it was Mötley Crüe. ©


Top
 Profile  
 
Display posts from previous:  Sort by  
Post new topic Reply to topic  [ 26 posts ]  Go to page Previous  1, 2

All times are UTC + 3 hours


Who is online

Users browsing this forum: No registered users and 2 guests


You cannot post new topics in this forum
You cannot reply to topics in this forum
You cannot edit your posts in this forum
You cannot delete your posts in this forum
You cannot post attachments in this forum

Search for:
Яндекс.Метрика
Powered by phpBB © 2000, 2002, 2005, 2007 phpBB Group