\m/ 80's metal \m/

Информационно-аналитический форум "80 см пыли" (In Search We Trust) "У нас никто никуда не спешит"
Железнодорожная биржа - RailAgent
It is currently 18 Jul 2018

All times are UTC + 3 hours

Spoiler
Chat - temporary registration for foreign users (please leave your application here)







Post new topic Reply to topic  [ 14 posts ] 
Author Message
 
PostPosted: 02 Jan 2009 
Работнечег
User avatar
Joined: 28 Aug 2007
Posts: 5379
Lоcаtion: г. Москва
Age: 29
Name: Дима
Hollow Ground - Warlord EP (1980)

Image

Genre: NWOBHM
Year: 1980
Country: UK
Bitrate: mp3,192 kbps
Size: 16 Mb

Line-Up:
Brian Rickman - bass (Fist (UK))
Martin Metcalfe - guitars (Fist (UK))
Glen Coates - vocals (Fist (UK))
Jon Lockney - drums


Tracklist:
1. Flying High 02:56
2. Warlord 02:20
3. Rock On 03:07
4. Don't Chase the Dragon 03:49
Total playing time 12:12

ифолдер
Мне понравился миник.Если кто располагает ещё какими-нибудь записями этой группы просьба выложить.


Top
 Profile E-mail  
 
 
PostPosted: 02 Jan 2009 
Я набрал 1000 сообщений!
User avatar
Joined: 25 Dec 2008
Posts: 1545
Age: 42
Name: Павел
У Даркмена на доке есть сплит Roksnax 1980 года.Там несколько команд,в том числе эта-4 песни(2 из них есть на этом минике).Если у тебя на док нет доступа-могу выложить. :smile:


Top
 Profile  
 
 
PostPosted: 03 Jan 2009 
Работнечег
User avatar
Joined: 28 Aug 2007
Posts: 5379
Lоcаtion: г. Москва
Age: 29
Name: Дима
Есть, я там даже модератор.Спасибо за наводку,Костик.


Top
 Profile E-mail  
 
 
PostPosted: 19 Jul 2017 
Доктор энтомологии
User avatar
Joined: 22 Jan 2009
Posts: 9181
Lоcаtion: Даугавпилс
Age: 43
Name: Алексей
Quote:
Если кто располагает ещё какими-нибудь записями этой группы просьба выложить.


Интернат сейчас явно располагает, к тому же вышел замечательный сборник, ретроспектива всего их творчества, включая туалетного качества демо-записи.

Hollow Ground 2014 Warlord (Compilation)

Disc 1
Side A
1. Flying High 02:55 Show lyrics
2. Warlord 02:21 Show lyrics
3. Rock On 03:07 Show lyrics
4. Don't Chase the Dragon 03:49 Show lyrics
5. Fight with the Devil 03:20
Side B
6. The Holy One 03:34
7. Rock to Love 03:29
8. Promised Land 03:43
9. Easy Action 02:38
10. Loser 02:36
total time: 31:32
Disc 2
Side A
1. Flying High 02:54
2. Promised Land 03:56
3. Rock On 03:01
4. Rock to Love 03:41
5. Warlord 02:31
6. Breaking Out 05:50
Side B
7. Easy Action 02:35
8. Fight with the Devil 03:21
9. The Holy One 03:49
10. Poltergeist 04:36
11. Don't Chase the Dragon 04:15
total time: 40:29

ImageImageImageImageImageImageImageImageImageImageImageImageImageImage

Ребята потом взяли себе незатейливое имя Fist (не путать с немцами и канадцами). Играли хардяшный такой приятный хэви митол английского разлива, что-то в духе ранних Saxon, Iron maiden, Samson. В друзьях у них были Mythra, Saracen, Hellanbach. Группку, как и упоминавшуюся уже на нашем форуме, Mythra, рекламировал в свое время любитель олдскула некий Ларс Ульрих, наверное однофамилец того однорукого барабанщика из Металлики.
Во флаках-факах подобное держать может наверное только извращенец, в сетях гуляет мп3 версия, которую удобно слушать в походе, на кухне, на работе и в гостях.


Top
 Profile  
 
 
PostPosted: 30 Jul 2017 
Работнечег
User avatar
Joined: 28 Aug 2007
Posts: 5379
Lоcаtion: г. Москва
Age: 29
Name: Дима
Пасиб, Лёш! Надо б качнуть :true:


Top
 Profile E-mail  
 
 
PostPosted: 30 Jul 2017 
HAMMER
User avatar
Joined: 16 May 2009
Posts: 5325
Lоcаtion: Тверь
Age: 45
Name: Александр
На метал архивах и дискогсе у этой епихи другое название. Меняем на Flying High? :vic:


Top
 Profile E-mail  
 
 
PostPosted: 31 Jul 2017 
Работнечег
User avatar
Joined: 28 Aug 2007
Posts: 5379
Lоcаtion: г. Москва
Age: 29
Name: Дима
Узнать бы откуда инфа у них, потому что на обложке слов Flying High нет, и когда я создавал пост на М-А ипиха под названием Warlord числилась, хотя на облоге и этого слова нет. Так что предлагаю ипиху в Hollow Ground переименовать :crazy:


Top
 Profile E-mail  
 
 
PostPosted: 03 Mar 2018 
Хиппей (support team)
User avatar
Joined: 30 Jul 2007
Posts: 105055
Lоcаtion: Киев (Kyiv, UA)
Age: 45
Name: Andrey
:thanx: Качну тоже всю эту хрень оптом :arrow: https://rutracker.org/forum/search.php? ... w%20Ground

_________________


Top
 Profile E-mail  
 
 
PostPosted: 03 Mar 2018 
Хиппей (support team)
User avatar
Joined: 30 Jul 2007
Posts: 105055
Lоcаtion: Киев (Kyiv, UA)
Age: 45
Name: Andrey
Там по ссылке одной оказались типа трэшера :arrow: Hollow Ground - 2010 - Devir
Такая хрень, как выяснилось, и не трэщ вовсе, а какой-то модерновый митол с иногда бабой подрыкивающей и мужиков иногда красиво поющим. Шлак, в общем, пардон :yyy:


ps. Где-то в интернете прочёл, что. это такой прогметол :oops:

_________________


Top
 Profile E-mail  
 
 
PostPosted: 04 Mar 2018 
Хиппей (support team)
User avatar
Joined: 30 Jul 2007
Posts: 105055
Lоcаtion: Киев (Kyiv, UA)
Age: 45
Name: Andrey
Hollow Ground - 2008 - Raw Tapes '79 (compilation) [320]

mirror: Giga l Drop l Narod l M-Cloud

Какая бодрая, но гиблая по звуку хрень :dance: Записано живьём в студии, насколько понял этот грохот.

_________________


Top
 Profile E-mail  
 
 
PostPosted: 04 Mar 2018 
Хиппей (support team)
User avatar
Joined: 30 Jul 2007
Posts: 105055
Lоcаtion: Киев (Kyiv, UA)
Age: 45
Name: Andrey
Hollow Ground - 2014 - Warlord (EP) [flac]

Image Image

mirror: Giga l Drop l Narod l M-Cloud

Image Image
ImageImage

Image Image
Image Image

log
Exact Audio Copy V1.0 beta 3 from 29. August 2011

EAC extraction logfile from 21. March 2015, 19:59

Hollow Ground / Warlord

Used drive : Optiarc DVD RW AD-7260S Adapter: 1 ID: 1

Read mode : Secure
Utilize accurate stream : Yes
Defeat audio cache : Yes
Make use of C2 pointers : No

Read offset correction : 48
Overread into Lead-In and Lead-Out : No
Fill up missing offset samples with silence : Yes
Delete leading and trailing silent blocks : No
Null samples used in CRC calculations : Yes
Used interface : Native Win32 interface for Win NT & 2000

Used output format : Internal WAV Routines
Sample format : 44.100 Hz; 16 Bit; Stereo


TOC of the extracted CD

Track | Start | Length | Start sector | End sector
---------------------------------------------------------
1 | 0:00.00 | 2:55.31 | 0 | 13155
2 | 2:55.31 | 2:20.54 | 13156 | 23709
3 | 5:16.10 | 3:06.65 | 23710 | 37724
4 | 8:23.00 | 3:48.42 | 37725 | 54866
5 | 12:11.42 | 3:19.74 | 54867 | 69865
6 | 15:31.41 | 3:43.01 | 69866 | 86591
7 | 19:14.42 | 3:28.73 | 86592 | 102264
8 | 22:43.40 | 3:42.73 | 102265 | 118987
9 | 26:26.38 | 2:37.40 | 118988 | 130802
10 | 29:04.03 | 2:35.66 | 130803 | 142493
11 | 31:39.69 | 2:53.48 | 142494 | 155516
12 | 34:33.42 | 3:53.22 | 155517 | 173013
13 | 38:26.64 | 3:00.49 | 173014 | 186562
14 | 41:27.38 | 3:41.08 | 186563 | 203145
15 | 45:08.46 | 2:31.31 | 203146 | 214501
16 | 47:40.02 | 5:49.67 | 214502 | 240743
17 | 53:29.69 | 2:34.40 | 240744 | 252333
18 | 56:04.34 | 3:21.03 | 252334 | 267411
19 | 59:25.37 | 3:49.11 | 267412 | 284597
20 | 63:14.48 | 4:35.55 | 284598 | 305277
21 | 67:50.28 | 4:15.10 | 305278 | 324412


Range status and errors

Selected range

Filename C:\Мои документы\Hollow Ground - 2014 - Warlord.wav

Peak level 97.9 %
Extraction speed 1.2 X
Range quality 100.0 %
Test CRC A767F46D
Copy CRC A767F46D
Copy OK

No errors occurred


AccurateRip summary

Track 1 not present in database
Track 2 not present in database
Track 3 not present in database
Track 4 not present in database
Track 5 not present in database
Track 6 not present in database
Track 7 not present in database
Track 8 not present in database
Track 9 not present in database
Track 10 not present in database
Track 11 not present in database
Track 12 not present in database
Track 13 not present in database
Track 14 not present in database
Track 15 not present in database
Track 16 not present in database
Track 17 not present in database
Track 18 not present in database
Track 19 not present in database
Track 20 not present in database
Track 21 not present in database

None of the tracks are present in the AccurateRip database

End of status report

---- CUETools DB Plugin V2.1.4

[CTDB TOCID: yhp6FMGtPAl52jnP8N.s7JKbpOU-] found
Submit result: yhp6FMGtPAl52jnP8N.s7JKbpOU- has been confirmed
Track | CTDB Status
1 | (2/2) Accurately ripped
2 | (2/2) Accurately ripped
3 | (2/2) Accurately ripped
4 | (2/2) Accurately ripped
5 | (2/2) Accurately ripped
6 | (2/2) Accurately ripped
7 | (2/2) Accurately ripped
8 | (2/2) Accurately ripped
9 | (2/2) Accurately ripped
10 | (2/2) Accurately ripped
11 | (2/2) Accurately ripped
12 | (2/2) Accurately ripped
13 | (2/2) Accurately ripped
14 | (2/2) Accurately ripped
15 | (2/2) Accurately ripped
16 | (2/2) Accurately ripped
17 | (2/2) Accurately ripped
18 | (2/2) Accurately ripped
19 | (2/2) Accurately ripped
20 | (2/2) Accurately ripped
21 | (2/2) Accurately ripped


==== Log checksum A244FECF9DA1B36BF7A226C82948D0ED5E6F8ED04CB4298EB8BF9CEA47BE03F0 ====

cue
REM GENRE NWOBHM
REM DATE 2014
REM DISCID 3510E515
REM COMMENT "ExactAudioCopy v1.0b3"
CATALOG 4260255246899
PERFORMER "Hollow Ground"
TITLE "Warlord"
FILE "Hollow Ground - 2014 - Warlord.flac" WAVE
TRACK 01 AUDIO
TITLE "Flying High"
PERFORMER "Hollow Ground"
ISRC DEQN41400081
INDEX 01 00:00:00
TRACK 02 AUDIO
TITLE "Warlord"
PERFORMER "Hollow Ground"
ISRC DEQN41400082
INDEX 01 02:55:31
TRACK 03 AUDIO
TITLE "Rock On"
PERFORMER "Hollow Ground"
ISRC DEQN41400083
INDEX 01 05:16:10
TRACK 04 AUDIO
TITLE "Don't Chase The Dragon"
PERFORMER "Hollow Ground"
ISRC DEQN41400084
INDEX 01 08:23:00
TRACK 05 AUDIO
TITLE "Fight With The Devil"
PERFORMER "Hollow Ground"
ISRC DEQN41400085
INDEX 01 12:11:42
TRACK 06 AUDIO
TITLE "The Holy One"
PERFORMER "Hollow Ground"
ISRC DEQN41400086
INDEX 01 15:31:41
TRACK 07 AUDIO
TITLE "Rock To Love"
PERFORMER "Hollow Ground"
ISRC DEQN41400087
INDEX 01 19:14:42
TRACK 08 AUDIO
TITLE "Promised Land"
PERFORMER "Hollow Ground"
ISRC DEQN41400088
INDEX 01 22:43:40
TRACK 09 AUDIO
TITLE "Easy Action"
PERFORMER "Hollow Ground"
ISRC DEQN41400089
INDEX 01 26:26:38
TRACK 10 AUDIO
TITLE "Loser"
PERFORMER "Hollow Ground"
INDEX 01 29:04:03
TRACK 11 AUDIO
TITLE "Flying High"
PERFORMER "Hollow Ground"
INDEX 01 31:39:69
TRACK 12 AUDIO
TITLE "Promised Land"
PERFORMER "Hollow Ground"
INDEX 01 34:33:42
TRACK 13 AUDIO
TITLE "Rock On"
PERFORMER "Hollow Ground"
INDEX 01 38:26:64
TRACK 14 AUDIO
TITLE "Rock To Love"
PERFORMER "Hollow Ground"
INDEX 01 41:27:38
TRACK 15 AUDIO
TITLE "Warlord"
PERFORMER "Hollow Ground"
INDEX 01 45:08:46
TRACK 16 AUDIO
TITLE "Breaking Out"
PERFORMER "Hollow Ground"
INDEX 01 47:40:02
TRACK 17 AUDIO
TITLE "Easy Action"
PERFORMER "Hollow Ground"
INDEX 01 53:29:69
TRACK 18 AUDIO
TITLE "Fight With The Devil"
PERFORMER "Hollow Ground"
INDEX 01 56:04:34
TRACK 19 AUDIO
TITLE "The Holy One"
PERFORMER "Hollow Ground"
INDEX 01 59:25:37
TRACK 20 AUDIO
TITLE "Poltergeist"
PERFORMER "Hollow Ground"
INDEX 01 63:14:48
TRACK 21 AUDIO
TITLE "Don't Chase The Dragon"
PERFORMER "Hollow Ground"
INDEX 01 67:50:28



Только начал слушать... Но уже повеяло 70-ми и Led Zeppelin :crazy:
Но слушается музыка прикольно и весело :meloman:

Ставлю на ночь, поспать под это. Под этот миник, состоящий из.. 21 песни :crazy:

_________________


Top
 Profile E-mail  
 
 
PostPosted: 04 Mar 2018 
Хиппей (support team)
User avatar
Joined: 30 Jul 2007
Posts: 105055
Lоcаtion: Киев (Kyiv, UA)
Age: 45
Name: Andrey
Scatterbrain wrote:
Под этот миник, состоящий из.. 21 песни

Фуф, здесь всего 10 студийных. Остальные снова лайв ин студио.
Из 10 аж 4 понравились :lob: :lob: :lob:

6+/10

_________________


Top
 Profile E-mail  
 
 
PostPosted: 04 Mar 2018 
Хиппей (support team)
User avatar
Joined: 30 Jul 2007
Posts: 105055
Lоcаtion: Киев (Kyiv, UA)
Age: 45
Name: Andrey
Первые 2-3 миника ищем?
Они, вообще-то, на сборнике должны присутствовать. Но, насколько смог разобрать, их там именно в том, оригинальном студийном варианте и нету :cry:

_________________


Top
 Profile E-mail  
 
 
PostPosted: 04 Mar 2018 
Хиппей (support team)
User avatar
Joined: 30 Jul 2007
Posts: 105055
Lоcаtion: Киев (Kyiv, UA)
Age: 45
Name: Andrey
Ааа, хотя, стоп. Есть они все на этом же EP "Warlord" :kro:

_________________


Top
 Profile E-mail  
 
Display posts from previous:  Sort by  
Post new topic Reply to topic  [ 14 posts ] 

All times are UTC + 3 hours


Who is online

Users browsing this forum: No registered users and 4 guests


You cannot post new topics in this forum
You cannot reply to topics in this forum
You cannot edit your posts in this forum
You cannot delete your posts in this forum
You cannot post attachments in this forum

Search for:
Яндекс.Метрика
Powered by phpBB © 2000, 2002, 2005, 2007 phpBB Group