\m/ 80's metal \m/

Информационно-аналитический форум "80 см пыли" (In Search We Trust) "У нас никто никуда не спешит"
Железнодорожная биржа - RailAgent
It is currently 16 Jul 2018

All times are UTC + 3 hours

Spoiler
Chat - temporary registration for foreign users (please leave your application here)







Post new topic Reply to topic  [ 23 posts ]  Go to page Previous  1, 2
Author Message
 
PostPosted: 26 Dec 2008 
Я набрал 1000 сообщений!
User avatar
Joined: 25 Dec 2008
Posts: 1545
Age: 42
Name: Павел
Ого!Классная штучка!Спасибо! :dance:


Top
 Profile  
 
 
PostPosted: 09 Mar 2010 
Генеральный thrasher
User avatar
Joined: 03 Oct 2008
Posts: 3405
Lоcаtion: Ханты-Мансийский АО
Age: 43
Name: Сергей
Немогу понять одного.Через foobar читает потрэково.А через AIMP2 только первый трэк.Что-то с куем не так? :vic:


Top
 Profile  
 
 
PostPosted: 16 Mar 2010 
Прокъмитолист
User avatar
Joined: 12 Aug 2007
Posts: 6413
Lоcаtion: Санктъ-Петербуркъ
Age: 50
Name: Олекъ
Сереж, если проблема еще остается, то попробуй куй от моего рипа:

History Of Terror CD1
Code:
REM GENRE "Thrash Metal"
REM DATE 2006
REM DISCID 4511AC15
REM COMMENT "ExactAudioCopy v0.95b4"
PERFORMER "Hallows Eve"
TITLE "History Of Terror CD1"
FILE "Hallows Eve - History Of Terror CD1.wav" WAVE
  TRACK 01 AUDIO
    TITLE "Plunging To Megadeath"
    PERFORMER "Hallows Eve"
    INDEX 01 00:00:00
  TRACK 02 AUDIO
    TITLE "Outer Limits"
    PERFORMER "Hallows Eve"
    INDEX 00 04:51:39
    INDEX 01 04:53:20
  TRACK 03 AUDIO
    TITLE "Horrorshow"
    PERFORMER "Hallows Eve"
    INDEX 00 08:37:59
    INDEX 01 08:39:02
  TRACK 04 AUDIO
    TITLE "The Mansion"
    PERFORMER "Hallows Eve"
    INDEX 01 11:07:29
  TRACK 05 AUDIO
    TITLE "There Are No Rules"
    PERFORMER "Hallows Eve"
    INDEX 00 14:11:65
    INDEX 01 14:12:52
  TRACK 06 AUDIO
    TITLE "Valley Of The Dolls"
    PERFORMER "Hallows Eve"
    INDEX 00 15:53:27
    INDEX 01 15:55:17
  TRACK 07 AUDIO
    TITLE "Metal Merchants"
    PERFORMER "Hallows Eve"
    INDEX 01 17:02:41
  TRACK 08 AUDIO
    TITLE "Hallows Eve (including Routine)"
    PERFORMER "Hallows Eve"
    INDEX 00 20:21:22
    INDEX 01 20:22:67
  TRACK 09 AUDIO
    TITLE "Death And Insanity"
    PERFORMER "Hallows Eve"
    INDEX 01 28:27:08
  TRACK 10 AUDIO
    TITLE "Goblet Of Gore"
    PERFORMER "Hallows Eve"
    INDEX 00 30:46:49
    INDEX 01 30:47:39
  TRACK 11 AUDIO
    TITLE "Lethal Tendencies"
    PERFORMER "Hallows Eve"
    INDEX 00 36:32:41
    INDEX 01 36:33:68
  TRACK 12 AUDIO
    TITLE "Obituary"
    PERFORMER "Hallows Eve"
    INDEX 00 43:11:56
    INDEX 01 43:13:11
  TRACK 13 AUDIO
    TITLE "Plea Of The Aged"
    PERFORMER "Hallows Eve"
    INDEX 01 43:50:13
  TRACK 14 AUDIO
    TITLE "Suicide"
    PERFORMER "Hallows Eve"
    INDEX 00 47:11:42
    INDEX 01 47:12:68
  TRACK 15 AUDIO
    TITLE "D.I.E. (Death In Effect)"
    PERFORMER "Hallows Eve"
    INDEX 00 48:31:00
    INDEX 01 48:33:00
  TRACK 16 AUDIO
    TITLE "Attack Of The Iguana"
    PERFORMER "Hallows Eve"
    INDEX 00 55:32:14
    INDEX 01 55:33:19
  TRACK 17 AUDIO
    TITLE "Nefarious"
    PERFORMER "Hallows Eve"
    INDEX 01 58:03:69
  TRACK 18 AUDIO
    TITLE "Nobody Lives Forever"
    PERFORMER "Hallows Eve"
    INDEX 00 63:05:71
    INDEX 01 63:07:45
  TRACK 19 AUDIO
    TITLE "Death And Insanity (reprise)"
    PERFORMER "Hallows Eve"
    INDEX 01 66:52:35
  TRACK 20 AUDIO
    TITLE "The Mansion (rehearsal June 1984)"
    PERFORMER "Hallows Eve"
    INDEX 01 68:50:07
  TRACK 21 AUDIO
    TITLE "Metal Prisoners (rehearsal June 1984)"
    PERFORMER "Hallows Eve"
    INDEX 01 72:35:18

_________________
прокъметол - это музыко, от которово есть прок (ы)


Top
 Profile  
 
Display posts from previous:  Sort by  
Post new topic Reply to topic  [ 23 posts ]  Go to page Previous  1, 2

All times are UTC + 3 hours


Who is online

Users browsing this forum: No registered users and 2 guests


You cannot post new topics in this forum
You cannot reply to topics in this forum
You cannot edit your posts in this forum
You cannot delete your posts in this forum
You cannot post attachments in this forum

Search for:
Яндекс.Метрика
Powered by phpBB © 2000, 2002, 2005, 2007 phpBB Group