\m/ 80's metal \m/

Информационно-аналитический форум "80 см пыли" (In Search We Trust) "У нас никто никуда не спешит"
Железнодорожная биржа - RailAgent
It is currently 20 May 2018

All times are UTC + 3 hours

Spoiler
Chat - temporary registration for foreign users (please leave your application here)







Post new topic Reply to topic  [ 31 posts ]  Go to page 1, 2  Next
Author Message
 
PostPosted: 04 Sep 2008 
udo
User avatar
Joined: 01 Mar 2008
Posts: 2343
Lоcаtion: Краснодар
Age: 47
Name: РОМАН
Hiroshima - Taste of Death

Image

Image



<Year> 1984
<Style> Heavy Metal
<Country> Sweden
<Format> 320 kb/s
<Size> 92 mb

<Line>
Tony Hanover - vocals
Hero O'Hara - guitar
Luke Powerhand - guitar
Jake Killer (Jouko) - bass
Raimo ``The Quick`` Pikanen - drums

<Tracklist>

1. Taste of Death 03:35
2. Rock 'n' Roll Priest 03:49
3. Lonely Room 04:35
4. Dreamworld 04:37
5. Down On My Knees 03:15
6. Midnight Fighter 04:25
7. Touch Me 04:04
8. Escape 04:03
9. Looser 03:12
10. Soldier of the World 04:48
Total playing time 40:23

http://ifolder.ru/7978927

mirror: iFolder l Narod l M-Cloud

Image


Top
 Profile E-mail  
 
 
PostPosted: 04 Sep 2008 
труъ антисионист
User avatar
Joined: 01 Aug 2007
Posts: 4541
Lоcаtion: Откуда и большинство из нас
Age: 37
Name: Дядя Вова
Спасибо! :true:

_________________
Image
Image


Top
 Profile  
 
 
PostPosted: 04 Sep 2008 
Хиппей (support team)
User avatar
Joined: 30 Jul 2007
Posts: 103471
Lоcаtion: Киев (Kyiv, UA)
Age: 44
Name: Andrey
Спасибо, знатная команда :thanx:


Top
 Profile E-mail  
 
 
PostPosted: 08 Sep 2008 
BANNED
User avatar
Joined: 23 Jul 2008
Posts: 2901
Age: 46
Name: Кирилл
Только что прослушал. Отличнейший альбом, пару треков вообще крышу сорвало. СУПЕР!!!

odu
:thanx: :thanx: :thanx: :thanx:


Top
 Profile  
 
 
PostPosted: 09 Oct 2008 
Power Metal Maniac
User avatar
Joined: 09 Aug 2008
Posts: 6077
Lоcаtion: Москва
Age: 40
Name: Егор
Шведский Heavy Metal, главным достоинством которого я назову мелодичность, и драйвовость. Большинство композиций выдержаны в быстром темпе, фактически приближаясь к Speed/Power, хотя в принципе основа традиционная для того времени, с элементами Прист-Accept . Выделю Taste of Death, Down On My Knees, Midnight Fighter, Escape, Soldier of the World. Есть и более хардовые вещи, Rock 'n' Roll Priest воприки названию больше напоминает не Прист, а AC/DC, и Dreamworld. Вообще, приятный для меня диск, понравился. 4.8/6.0.

_________________
Long Live Metal!


Top
 Profile  
 
 
PostPosted: 07 Jan 2009 
Персональный статус
User avatar
Joined: 23 Jan 2008
Posts: 339
Age: 44
Name: Олег
Спасибо odu. Мне тоже альбом пришелся по душе.


Top
 Profile  
 
 
PostPosted: 07 Jan 2009 
Анатолий
User avatar
Joined: 18 Oct 2008
Posts: 3020
Lоcаtion: Армавир
Age: 40
Name: Анатолий
А как быть с лосеком, а? Никто случайно не богат на этого дивного зверька?


Top
 Profile E-mail  
 
 
PostPosted: 07 Jan 2009 
Хиппей (support team)
User avatar
Joined: 30 Jul 2007
Posts: 103471
Lоcаtion: Киев (Kyiv, UA)
Age: 44
Name: Andrey
Privateer wrote:
лосеком

:zayaz:


Top
 Profile E-mail  
 
 
PostPosted: 07 Jan 2009 
А может смените мне статус?..
User avatar
Joined: 01 Sep 2008
Posts: 778
Lоcаtion: Москва, Нагорный р-н
Age: 32
Name: Vagiz
а EP или сигнлы имеются? у кого-нибудь

_________________
........?Como estas Amigos?


Top
 Profile E-mail  
 
 
PostPosted: 08 Jan 2009 
Работнечег
User avatar
Joined: 28 Aug 2007
Posts: 5264
Lоcаtion: г. Москва
Age: 29
Name: Дима
Кажись есть вот это Hiroshima - Soldier Of The World(Single) (1983) 160kbps.Нужно?


Top
 Profile E-mail  
 
 
PostPosted: 08 Jan 2009 
А может смените мне статус?..
User avatar
Joined: 01 Sep 2008
Posts: 778
Lоcаtion: Москва, Нагорный р-н
Age: 32
Name: Vagiz
ооо этот точно. нужно нужно :thanx:

_________________
........?Como estas Amigos?


Top
 Profile E-mail  
 
 
PostPosted: 08 Jan 2009 
Анатолий
User avatar
Joined: 18 Oct 2008
Posts: 3020
Lоcаtion: Армавир
Age: 40
Name: Анатолий
Scatterbrain

Проверочное слово losslEss - отсюда и дивное животное лосЕк. :nunu: Он мне нужен в таком вот мутировавшем виде.


Top
 Profile E-mail  
 
 
PostPosted: 21 Sep 2016 
А может смените мне статус?..
User avatar
Joined: 24 Dec 2008
Posts: 597
Age: 44
Name: Дмитрий
Лосик так и не пробегал? :losik:


Top
 Profile  
 
 
PostPosted: 21 Sep 2016 
спирт 100%
User avatar
Joined: 22 Sep 2008
Posts: 4205
Age: 46
Name: Саня
http://raritetno.com/lossless/86104-hir ... sless.html


Top
 Profile  
 
 
PostPosted: 21 Sep 2016 
Анатолий
User avatar
Joined: 18 Oct 2008
Posts: 3020
Lоcаtion: Армавир
Age: 40
Name: Анатолий
А может кто-нибудь оттуда утянуть и перелить?


Top
 Profile E-mail  
 
 
PostPosted: 22 Sep 2016 
Хиппей (support team)
User avatar
Joined: 30 Jul 2007
Posts: 103471
Lоcаtion: Киев (Kyiv, UA)
Age: 44
Name: Andrey
Пока ихняя ссылка http://yadi.sk/d/harKp82KE95DB
Обновлю постепенно.

_________________


Top
 Profile E-mail  
 
 
PostPosted: 22 Sep 2016 
Хиппей (support team)
User avatar
Joined: 30 Jul 2007
Posts: 103471
Lоcаtion: Киев (Kyiv, UA)
Age: 44
Name: Andrey
Как-то дуть как дико медленно качается файл этот.
Вчера не успел докачать, сейчас же начал снова и вижу тоже самое:

Image

_________________


Top
 Profile E-mail  
 
 
PostPosted: 22 Sep 2016 
Хиппей (support team)
User avatar
Joined: 30 Jul 2007
Posts: 103471
Lоcаtion: Киев (Kyiv, UA)
Age: 44
Name: Andrey
Тьху. Перебросил к себе в акк. Скачал оттуда за 2 секунды.

_________________


Top
 Profile E-mail  
 
 
PostPosted: 22 Sep 2016 
Хиппей (support team)
User avatar
Joined: 30 Jul 2007
Posts: 103471
Lоcаtion: Киев (Kyiv, UA)
Age: 44
Name: Andrey
Включил. Слушаю.
Сразу не понравился этот "металлический" звук альбома :fingal:

_________________


Top
 Profile E-mail  
 
 
PostPosted: 22 Sep 2016 
Хиппей (support team)
User avatar
Joined: 30 Jul 2007
Posts: 103471
Lоcаtion: Киев (Kyiv, UA)
Age: 44
Name: Andrey
Hiroshima - 1984 - Taste Of Death

Image

Image

mirror: iFoldder l Narod l M-Cloud

Image
Image Image

cue
REM GENRE "Heavy Metal"
REM DATE 1984
REM DISCID 8509850A
REM COMMENT "ExactAudioCopy v1.0b3"
PERFORMER "Hiroshima"
TITLE "Taste Of Death (KRALP 16)"
FILE "Hiroshima - Taste Of Death (KRALP 16).flac" WAVE
TRACK 01 AUDIO
TITLE "Taste Of Death"
PERFORMER "Hiroshima"
INDEX 01 00:00:00
TRACK 02 AUDIO
TITLE "Rock 'n' Roll Priest"
PERFORMER "Hiroshima"
INDEX 01 03:35:26
TRACK 03 AUDIO
TITLE "Lonely Room"
PERFORMER "Hiroshima"
INDEX 01 07:24:27
TRACK 04 AUDIO
TITLE "Dreamworld"
PERFORMER "Hiroshima"
INDEX 01 12:00:17
TRACK 05 AUDIO
TITLE "Down On My Knees"
PERFORMER "Hiroshima"
INDEX 01 16:37:42
TRACK 06 AUDIO
TITLE "Midnight Fighter"
PERFORMER "Hiroshima"
INDEX 01 19:52:69
TRACK 07 AUDIO
TITLE "Touch Me"
PERFORMER "Hiroshima"
INDEX 01 24:18:45
TRACK 08 AUDIO
TITLE "Escape"
PERFORMER "Hiroshima"
INDEX 01 28:23:35
TRACK 09 AUDIO
TITLE "Looser"
PERFORMER "Hiroshima"
INDEX 01 32:26:71
TRACK 10 AUDIO
TITLE "Soldier Of The World"
PERFORMER "Hiroshima"
INDEX 01 35:39:68

_________________


Top
 Profile E-mail  
 
Display posts from previous:  Sort by  
Post new topic Reply to topic  [ 31 posts ]  Go to page 1, 2  Next

All times are UTC + 3 hours


Who is online

Users browsing this forum: No registered users and 2 guests


You cannot post new topics in this forum
You cannot reply to topics in this forum
You cannot edit your posts in this forum
You cannot delete your posts in this forum
You cannot post attachments in this forum

Search for:
Яндекс.Метрика
Powered by phpBB © 2000, 2002, 2005, 2007 phpBB Group