\m/ 80's metal \m/

Информационно-аналитический форум "80 см пыли" (In Search We Trust) "У нас никто никуда не спешит"
Me For You - http://me-4u.com
It is currently 19 Oct 2018

All times are UTC + 3 hours

Spoiler
Chat - temporary registration for foreign users (please leave your application here)







Post new topic Reply to topic  [ 9 posts ] 
Author Message
 
PostPosted: 20 Jul 2018 
Работнечег
User avatar
Joined: 28 Aug 2007
Posts: 5468
Lоcаtion: г. Москва
Age: 29
Name: Дима
Image
Style: Power Metal
Year: 1994
Label: Def Records
Country: Australia
Bitrate: Flac + Cue + Log + Covers
Size: 400 Mb

Line-Up:
Mark Wylie - Drums
Tony Brereton - Guitars
Corey Romeo - Guitars, Vocals
Jim Georgopoulis - Vocals
Steve Cole - Bass
Lara Jorgacevic - Keyboards


Tracklist:
1. Twilight Runner 05:48
2. The Kill 05:44
3. Stay Gold 06:10
4. Power 07:21
5. Autumn 05:52
6. Heartland 06:02
7. Soul Cry 05:41
8. Sundance 05:01
9. Inundation 15:49

LOG
Exact Audio Copy V0.99 prebeta 5 from 4. May 2009

EAC extraction logfile from 1. July 2018, 16:07

Hyperion / Inundation

Used drive : PIONEER DVD-RW DVR-221 Adapter: 2 ID: 1

Read mode : Secure
Utilize accurate stream : Yes
Defeat audio cache : Yes
Make use of C2 pointers : No

Read offset correction : 6
Overread into Lead-In and Lead-Out : No
Fill up missing offset samples with silence : Yes
Delete leading and trailing silent blocks : No
Null samples used in CRC calculations : Yes
Used interface : Native Win32 interface for Win NT & 2000

Used output format : User Defined Encoder
Selected bitrate : 32 kBit/s
Quality : High
Add ID3 tag : No
Command line compressor : C:\Program Files\Exact Audio Copy\Flac\flac.exe
Additional command line options : -6 -V %s


TOC of the extracted CD

Track | Start | Length | Start sector | End sector
---------------------------------------------------------
1 | 0:00.32 | 5:48.38 | 32 | 26169
2 | 5:48.70 | 5:44.55 | 26170 | 52024
3 | 11:33.50 | 6:10.50 | 52025 | 79824
4 | 17:44.25 | 7:21.35 | 79825 | 112934
5 | 25:05.60 | 5:52.10 | 112935 | 139344
6 | 30:57.70 | 6:02.00 | 139345 | 166494
7 | 36:59.70 | 5:41.00 | 166495 | 192069
8 | 42:40.70 | 5:01.00 | 192070 | 214644
9 | 47:41.70 | 15:49.37 | 214645 | 285856


Range status and errors

Selected range

Filename D:\Музыка\Lossless\Hyperion - Inundation (1994)\Hyperion - Inundation.wav

Peak level 100.0 %
Range quality 99.9 %
Copy CRC E1D5B5D7
Copy OK

No errors occurred


AccurateRip summary

Track 1 not present in database
Track 2 not present in database
Track 3 not present in database
Track 4 not present in database
Track 5 not present in database
Track 6 not present in database
Track 7 not present in database
Track 8 not present in database
Track 9 not present in database

None of the tracks are present in the AccurateRip database

End of status report

CUE
REM GENRE "Melodic Speed/Power Metal"
REM DATE 1994
REM DISCID 780EE309
REM COMMENT "ExactAudioCopy v0.99pb5"
PERFORMER "Hyperion"
TITLE "Inundation"
FILE "Hyperion - Inundation.flac" WAVE
TRACK 01 AUDIO
TITLE "Twilight Runner"
PERFORMER "Hyperion"
INDEX 00 00:00:00
INDEX 01 00:00:32
TRACK 02 AUDIO
TITLE "The Kill"
PERFORMER "Hyperion"
INDEX 01 05:48:70
TRACK 03 AUDIO
TITLE "Stay Gold"
PERFORMER "Hyperion"
INDEX 01 11:33:50
TRACK 04 AUDIO
TITLE "Power"
PERFORMER "Hyperion"
INDEX 01 17:44:25
TRACK 05 AUDIO
TITLE "Autumn"
PERFORMER "Hyperion"
INDEX 01 25:05:60
TRACK 06 AUDIO
TITLE "Heartland"
PERFORMER "Hyperion"
INDEX 01 30:57:70
TRACK 07 AUDIO
TITLE "Soul Cry"
PERFORMER "Hyperion"
INDEX 01 36:59:70
TRACK 08 AUDIO
TITLE "Sundance"
PERFORMER "Hyperion"
INDEX 01 42:40:70
TRACK 09 AUDIO
TITLE "Inundation"
PERFORMER "Hyperion"
INDEX 01 47:41:70
INDEX 02 62:20:70


Yadi



Top
 Profile E-mail  
 
 
PostPosted: 21 Jul 2018 
Хиппей (support team)
User avatar
Joined: 30 Jul 2007
Posts: 107026
Lоcаtion: Киев (Kyiv, UA)
Age: 45
Name: Andrey
:thanx:

mirror: Uloz l Drop l Narod l M-Cloud

_________________


Top
 Profile E-mail  
 
 
PostPosted: 21 Jul 2018 
Хиппей (support team)
User avatar
Joined: 30 Jul 2007
Posts: 107026
Lоcаtion: Киев (Kyiv, UA)
Age: 45
Name: Andrey
Димка, спасибо за рип :kro:

Но просьба в дальнейшем пользоваться для оформления правильным шаблоном для названий тем :arrow: viewtopic.php?p=335399&f=113#p335399 :thanx:

_________________


Top
 Profile E-mail  
 
 
PostPosted: 21 Jul 2018 
Работнечег
User avatar
Joined: 28 Aug 2007
Posts: 5468
Lоcаtion: г. Москва
Age: 29
Name: Дима
Димка, спасибо за рип :kro:

Но просьба в дальнейшем пользоваться для оформления правильным шаблоном для названий тем :arrow: https://80metal.com/viewtopic.php?p=335 ... 13#p335399 :thanx:

Хорошо:)


Top
 Profile E-mail  
 
 
PostPosted: 21 Jul 2018 
Рарник и трушник
User avatar
Joined: 25 Dec 2009
Posts: 8260
Lоcаtion: Москва
Age: 53
Name: Виталий
:thanx:


Top
 Profile  
 
 
PostPosted: 23 Jul 2018 
Хиппей (support team)
User avatar
Joined: 30 Jul 2007
Posts: 107026
Lоcаtion: Киев (Kyiv, UA)
Age: 45
Name: Andrey
Какой-то очередной клон-последователь группы Queensryche :vic:

6/10

_________________


Top
 Profile E-mail  
 
 
PostPosted: 23 Jul 2018 
Хиппей (support team)
User avatar
Joined: 30 Jul 2007
Posts: 107026
Lоcаtion: Киев (Kyiv, UA)
Age: 45
Name: Andrey

_________________


Top
 Profile E-mail  
 
 
PostPosted: 23 Jul 2018 
Хиппей (support team)
User avatar
Joined: 30 Jul 2007
Posts: 107026
Lоcаtion: Киев (Kyiv, UA)
Age: 45
Name: Andrey
Ну, с Куинсрайхом я чутка погорячился, но павер как павер здесь, хоть и с некоторыми элементами прога :pardon:

зы. Завершающая композиция на альбоме явно понравится и трэшэрам :lob:

_________________


Top
 Profile E-mail  
 
 
PostPosted: 25 Jul 2018 
спирт 100%
User avatar
Joined: 22 Sep 2008
Posts: 4302
Age: 47
Name: Саня
:thanx:


Top
 Profile  
 
Display posts from previous:  Sort by  
Post new topic Reply to topic  [ 9 posts ] 

All times are UTC + 3 hours


Who is online

Users browsing this forum: No registered users and 1 guest


You cannot post new topics in this forum
You cannot reply to topics in this forum
You cannot edit your posts in this forum
You cannot delete your posts in this forum
You cannot post attachments in this forum

Search for:
Яндекс.Метрика
Powered by phpBB © 2000, 2002, 2005, 2007 phpBB Group