\m/ 80's metal \m/

Информационно-аналитический форум "80 см пыли" (In Search We Trust) "У нас никто никуда не спешит"
Железнодорожная биржа - RailAgent
It is currently 17 Aug 2018

All times are UTC + 3 hours

Spoiler
Chat - temporary registration for foreign users (please leave your application here)







Post new topic Reply to topic  [ 15 posts ] 
Author Message
 
PostPosted: 16 Dec 2014 
Генеральный thrasher
User avatar
Joined: 03 Oct 2008
Posts: 3422
Lоcаtion: Ханты-Мансийский АО
Age: 43
Name: Сергей
Мужик обещал - мужик сделал!

Image

Year:1990
Style:Thrash Metal
Country:Poland
Audio:Flac+Cue+Log+Scans
Size:259Mb
Source:my CD
Label:Poko Rekords

Line-Up:
Snipe - vocals
Chuck - bass
Micky - guitars
Funny - guitars
Kliman - drums

Tracklist:
01. Shermann 03:59
02. Camp 04:42
03. The Oddest Dream 05:07
04. Different from Me 03:43
05. For Her My Nut 06:35
06. Destroyer 05:01
07. Rage 05:38

"Cue"
REM GENRE "Thrash Metal"
REM DATE 1990
REM DISCID 5C083607
REM COMMENT "ExactAudioCopy v0.99pb5"
PERFORMER "Hammer"
TITLE "Shermann"
FILE "Hammer - Shermann.flac" WAVE
TRACK 01 AUDIO
TITLE "Shermann"
PERFORMER "Hammer"
INDEX 00 00:00:00
INDEX 01 00:00:32
TRACK 02 AUDIO
TITLE "Camp"
PERFORMER "Hammer"
INDEX 00 04:00:00
INDEX 01 04:03:05
TRACK 03 AUDIO
TITLE "The Oddest Dream"
PERFORMER "Hammer"
INDEX 00 08:45:65
INDEX 01 08:47:65
TRACK 04 AUDIO
TITLE "Different From Me"
PERFORMER "Hammer"
INDEX 00 13:55:00
INDEX 01 13:56:60
TRACK 05 AUDIO
TITLE "For Her My Nut"
PERFORMER "Hammer"
INDEX 00 17:39:72
INDEX 01 17:42:55
TRACK 06 AUDIO
TITLE "Destroyer"
PERFORMER "Hammer"
INDEX 00 24:18:45
INDEX 01 24:20:60
TRACK 07 AUDIO
TITLE "Rage"
PERFORMER "Hammer"
INDEX 00 29:22:12
INDEX 01 29:24:45

"Log"
Exact Audio Copy V0.99 prebeta 5 from 4. May 2009

Отчёт EAC об извлечении, выполненном 22. февраля 2013, 10:52

Hammer / Shermann

Дисковод: TSSTcorpCDDVDW SH-S202N Adapter: 0 ID: 1

Режим чтения : Достоверность
Использование точного потока : Да
Отключение кэша аудио : Да
Использование указателей C2 : Нет

Коррекция смещения при чтении : 6
Способность читать области Lead-in и Lead-out : Нет
Заполнение пропущенных сэмплов тишиной : Да
Удаление блоков с тишиной в начале и конце : Нет
При вычислениях CRC использовались нулевые сэмплы : Да
Интерфейс : Встроенный Win32-интерфейс для Win NT/2000

Выходной формат : Пользовательский кодировщик
Выбранный битрейт : 768 kBit/s
Качество : Высокий
Добавление ID3-тэга : Нет
Утилита сжатия : C:\Program Files\Exact Audio Copy\FLAC\FLAC.EXE
Дополнительные параметры : -6 -V -T "ARTIST=%a" -T "TITLE=%t" -T "ALBUM=%g" -T "DATE=%y" -T "TRACKNUMBER=%n" -T "GENRE=%m" -T "COMMENT=%e" %s -o %d


TOC извлечённого CD

Трек | Старт | Длительность | Начальный сектор | Конечный сектор
---------------------------------------------------------------------
1 | 0:00.32 | 4:02.48 | 32 | 18229
2 | 4:03.05 | 4:44.60 | 18230 | 39589
3 | 8:47.65 | 5:08.70 | 39590 | 62759
4 | 13:56.60 | 3:45.70 | 62760 | 79704
5 | 17:42.55 | 6:38.05 | 79705 | 109559
6 | 24:20.60 | 5:03.60 | 109560 | 132344
7 | 29:24.45 | 5:38.12 | 132345 | 157706


Характеристики диапазона извлечения и сообщения об ошибках

Выбранный диапазон

Имя файла D:\Lossless Music\Hammer - Shermann.wav

Пиковый уровень 87.0 %
Качество диапазона 100.0 %
CRC копии B7237F86
Копирование... OK

Ошибок не произошло


AccurateRip: сводка

Трек 1 нет в базе данных
Трек 2 нет в базе данных
Трек 3 нет в базе данных
Трек 4 нет в базе данных
Трек 5 нет в базе данных
Трек 6 нет в базе данных
Трек 7 нет в базе данных

Ни одного трека нет в базе AccurateRip

Конец отчёта


Shermann


Top
 Profile  
 
 
PostPosted: 16 Dec 2014 
HAMMER
User avatar
Joined: 16 May 2009
Posts: 5346
Lоcаtion: Тверь
Age: 45
Name: Александр
Image

А ведь похож. ;)


Top
 Profile E-mail  
 
 
PostPosted: 16 Dec 2014 
Генеральный thrasher
User avatar
Joined: 03 Oct 2008
Posts: 3422
Lоcаtion: Ханты-Мансийский АО
Age: 43
Name: Сергей
Так ето ж он и есть!!! :benya:


Top
 Profile  
 
 
PostPosted: 16 Dec 2014 
Трешер
User avatar
Joined: 25 Feb 2011
Posts: 1045
Lоcаtion: Харьков
Age: 41
Name: Aleksandr
:thanx: Спасибо ! Сто процентов он :true:
я только не пойму откуда эти две живые взяты - Obóz и Szał на этой сборке Metalmania Tracks '87/'88/'89

нет таких :vic: metal-archives


Top
 Profile E-mail  
 
 
PostPosted: 16 Dec 2014 
Трешер
User avatar
Joined: 25 Feb 2011
Posts: 1045
Lоcаtion: Харьков
Age: 41
Name: Aleksandr
Чем то бельгийцев из Target напоминает :true:


Top
 Profile E-mail  
 
 
PostPosted: 16 Dec 2014 
Хиппей (support team)
User avatar
Joined: 30 Jul 2007
Posts: 105647
Lоcаtion: Киев (Kyiv, UA)
Age: 45
Name: Andrey
:thanx:

_________________


Top
 Profile E-mail  
 
 
PostPosted: 16 Dec 2014 
Генеральный thrasher
User avatar
Joined: 03 Oct 2008
Posts: 3422
Lоcаtion: Ханты-Мансийский АО
Age: 43
Name: Сергей
Всё!Я пошёл спать!Мне завтра на сутки...И учения завтра грандиозные предстоят.Разбирайтесь пока с энтими Хаммерами...


Top
 Profile  
 
 
PostPosted: 16 Dec 2014 
Доктор энтомологии
User avatar
Joined: 22 Jan 2009
Posts: 9237
Lоcаtion: Даугавпилс
Age: 43
Name: Алексей
Удачной работы Серега и спокойной ночи :lob:


Top
 Profile  
 
 
PostPosted: 16 Dec 2014 
Трешер
User avatar
Joined: 25 Feb 2011
Posts: 1045
Lоcаtion: Харьков
Age: 41
Name: Aleksandr
Алексей а где это такой город - Даугавпилс :benya:


Top
 Profile E-mail  
 
 
PostPosted: 16 Dec 2014 
Прокъмитолист
User avatar
Joined: 12 Aug 2007
Posts: 6447
Lоcаtion: Санктъ-Петербуркъ
Age: 50
Name: Олекъ
:thanx:

_________________
прокъметол - это музыко, от которово есть прок (ы)


Top
 Profile  
 
 
PostPosted: 16 Dec 2014 
Хиппей (support team)
User avatar
Joined: 30 Jul 2007
Posts: 105647
Lоcаtion: Киев (Kyiv, UA)
Age: 45
Name: Andrey
Алексей а где это такой город - Даугавпилс :benya:

:shok:
Латвия :lob:

_________________


Top
 Profile E-mail  
 
 
PostPosted: 16 Dec 2014 
Доктор энтомологии
User avatar
Joined: 22 Jan 2009
Posts: 9237
Lоcаtion: Даугавпилс
Age: 43
Name: Алексей
ага, второй город по величине в Латвии, столица Латгалии :lob:


Top
 Profile  
 
 
PostPosted: 17 Dec 2014 
Трешер
User avatar
Joined: 25 Feb 2011
Posts: 1045
Lоcаtion: Харьков
Age: 41
Name: Aleksandr
Вот это ты забрался , а сам то из Иркутска родом то ?


Top
 Profile E-mail  
 
 
PostPosted: 17 Dec 2014 
Доктор энтомологии
User avatar
Joined: 22 Jan 2009
Posts: 9237
Lоcаtion: Даугавпилс
Age: 43
Name: Алексей
да, там родился. а тут уже пять лет живу и работаю. всяко оно в жизни бывает


Top
 Profile  
 
 
PostPosted: 17 Dec 2014 
ТрэшЭрос
User avatar
Joined: 18 Jul 2011
Posts: 2296
Lоcаtion: Гулькевичи
Age: 43
Name: Александр
thorbeorn, :thanx: :true: :true: :true:

_________________
Thrash no trash!!!


Top
 Profile E-mail  
 
Display posts from previous:  Sort by  
Post new topic Reply to topic  [ 15 posts ] 

All times are UTC + 3 hours


Who is online

Users browsing this forum: No registered users and 3 guests


You cannot post new topics in this forum
You cannot reply to topics in this forum
You cannot edit your posts in this forum
You cannot delete your posts in this forum
You cannot post attachments in this forum

Search for:
Яндекс.Метрика
Powered by phpBB © 2000, 2002, 2005, 2007 phpBB Group