\m/ 80's metal \m/

Информационно-аналитический форум "80 см пыли" (In Search We Trust) "У нас никто никуда не спешит"
Железнодорожная биржа - RailAgent
It is currently 18 Jul 2018

All times are UTC + 3 hours

Spoiler
Chat - temporary registration for foreign users (please leave your application here)







Post new topic Reply to topic  [ 34 posts ]  Go to page Previous  1, 2
Author Message
 
PostPosted: 06 Aug 2014 
парень в очёчкXаX!
User avatar
Joined: 15 Aug 2007
Posts: 2353
Lоcаtion: UK'раина, г. ЛондАн Би-Би-Си
Age: 47
Name: Сергей
------------> Послушал и понял, что материал потрясающий, к тому же сейчас уже просто уникальнейший! Такое пропускать нельзя, стало быть в коллекцию.... и толькА! <------------
Image Image
Country: UK
Genre: Rock
Format: WAV+CUE+LOG
Total size: 396mb

Label: Lemon Recordings
Catalogue number: CDLEM 113

Line up:
Gary Holton - Lead Vocals
Cosmo - Guitars
Ronnie Thomas - Bass & Vocals
Keith Boyce - Drums & Percussion
Danny Peyronel - Keyboards & Vocals

Tracklisting:
1 - Hard At The Top
2 - You Got Me Rollin'
3 - On The Street
4 - Situation's Outta Control
5 - Blue Eyed Boy
6 - Old Time Boogie
7 - The Turk (An'Wot'E Smokes)
8 - Crisis
9 - The Cops Are Coming
10 - The Big Fire

*Bonus Tracks:
11 - The Cops Are Coming (Live)
12 - Ain't Nuthin' But A House Party (Live)

Total playing time: 53:27

Engineered and produced by Andy Johns - Assistant engineer Dave Hutchins
Recorded at Basing Street Studios, London.

All tracks licensed courtesy of Warner Music UK
except *bonus tracks Cherry Red Records.

Tracks 1-10 ℗ 1975 Atlantic Records
Tracks 11-12 ℗ 1988 Links Records


Originally released in 1975 on Atlantic Records K50143

This compilation ℗ 2012 Lemon Recordings, a division of Cherry Red Records Ltd.
3A Long Island House, Warple Way, London, W3 ORG.

Totally re-mastered by Tim Turan from original master tapes.
Image
album
TAU Analyzer ~ tracks
Image

TAU Analyzer ~ spectrum
Image

TAU Analyzer ~ frequency
Image


Top
 Profile  
 
 
PostPosted: 06 Aug 2014 
Работнечег
User avatar
Joined: 28 Aug 2007
Posts: 5379
Lоcаtion: г. Москва
Age: 29
Name: Дима
Спасибо, Серег! :thanx: как тебе Lemon Recordings? :)


Top
 Profile E-mail  
 
 
PostPosted: 08 Aug 2014 
Хиппей (support team)
User avatar
Joined: 30 Jul 2007
Posts: 105055
Lоcаtion: Киев (Kyiv, UA)
Age: 45
Name: Andrey
:thanx:

mirror: Narod l M-Cloud

_________________


Top
 Profile E-mail  
 
 
PostPosted: 08 Aug 2014 
Я набрал 1000 сообщений!
Joined: 24 Oct 2009
Posts: 1987
Lоcаtion: Оренбург
Age: 54
Name: Юра
Спасибо! :thanx:

_________________
:dash: I am happy!


Top
 Profile E-mail  
 
 
PostPosted: 09 Aug 2014 
Хиппей (support team)
User avatar
Joined: 30 Jul 2007
Posts: 105055
Lоcаtion: Киев (Kyiv, UA)
Age: 45
Name: Andrey
Два раза пока послушал альбом.
Первый, чтобы убедиться, в каком подфоруме его оставлять.
Однозначно в основном - здесь есть и хард-рок, и классик-рок и сайкоделия и немного глэма, но харды всё же процентов 70, так что вынимаю из неформатных запросов :pardon:

Второй раз слушал ради самой музыки.
Скажу так - некоторые композиции, штук 5-6 весьма понравились :meloman:

_________________


Top
 Profile E-mail  
 
 
PostPosted: 11 Aug 2014 
Почётный металлург
User avatar
Joined: 15 Sep 2007
Posts: 4357
Lоcаtion: Хабаровск
Age: 58
Name: чуть выше
Огромнейшее спасибо!! :dance:
И очень рад, что он вам понравился. Если хотите, могу выложить 77-й

_________________
Коль будешь людей ты ослами честить,
тебе человеком меж них не прослыть!
(Саади, персидский поэт, 13в.)


Top
 Profile  
 
 
PostPosted: 11 Aug 2014 
Хиппей (support team)
User avatar
Joined: 30 Jul 2007
Posts: 105055
Lоcаtion: Киев (Kyiv, UA)
Age: 45
Name: Andrey
Не откажусь я и от 77-го :dance:

_________________


Top
 Profile E-mail  
 
 
PostPosted: 12 Aug 2014 
Почётный металлург
User avatar
Joined: 15 Sep 2007
Posts: 4357
Lоcаtion: Хабаровск
Age: 58
Name: чуть выше
Вечерком выложу
;)

_________________
Коль будешь людей ты ослами честить,
тебе человеком меж них не прослыть!
(Саади, персидский поэт, 13в.)


Top
 Profile  
 
 
PostPosted: 12 Aug 2014 
Почётный металлург
User avatar
Joined: 15 Sep 2007
Posts: 4357
Lоcаtion: Хабаровск
Age: 58
Name: чуть выше
Heavy Metal Kids (UK) - 1977 Kitsch (Japan TOCP-8444) [@flac] 187 Mb

Image Image Image Image Image

https://cloud.mail.ru/public/d19060953c ... lac%5D.rar

log
Exact Audio Copy V1.0 beta 3 from 29. August 2011

Отчёт EAC об извлечении, выполненном 5. декабря 2011, 12:24

Heavy Metal Kids / Kitsch [TOCP-8444]

Дисковод: Optiarc DVD RW AD-7200A Adapter: 1 ID: 0

Режим чтения : Достоверность
Использование точного потока : Да
Отключение кэша аудио : Да
Использование указателей C2 : Нет

Коррекция смещения при чтении : 48
Способность читать области Lead-in и Lead-out : Нет
Заполнение пропущенных сэмплов тишиной : Да
Удаление блоков с тишиной в начале и конце : Нет
При вычислениях CRC использовались нулевые сэмплы : Да
Интерфейс : Встроенный Win32-интерфейс для Win NT/2000

Выходной формат : Пользовательский кодировщик
Выбранный битрейт : 32 kBit/s
Качество : Высокий
Добавление ID3-тега : Нет
Утилита сжатия : C:\Program Files\Exact Audio Copy\Flac\flac.exe
Дополнительные параметры : -V -8 -T "Date=%year%" -T "Genre=%genre%" %source%


TOC извлечённого CD

Трек | Старт | Длительность | Начальный сектор | Конечный сектор
---------------------------------------------------------------------
1 | 0:00.00 | 2:43.12 | 0 | 12236
2 | 2:43.12 | 4:19.40 | 12237 | 31701
3 | 7:02.52 | 4:23.63 | 31702 | 51489
4 | 11:26.40 | 5:10.22 | 51490 | 74761
5 | 16:36.62 | 3:39.08 | 74762 | 91194
6 | 20:15.70 | 2:38.42 | 91195 | 103086
7 | 22:54.37 | 3:58.33 | 103087 | 120969
8 | 26:52.70 | 6:21.42 | 120970 | 149586


Характеристики диапазона извлечения и сообщения об ошибках

Выбранный диапазон

Имя файла Y:\Музыка\Heavy Metal Kids\1977 Kitsch\Heavy Metal Kids - Kitsch [TOCP-8444].wav

Пиковый уровень 97.4 %
Скорость извлечения 3.3 X
Качество диапазона 100.0 %
CRC теста 054F9929
CRC копии 054F9929
Копирование... OK

Ошибок не произошло


AccurateRip: сводка

Трек 1 : извлечено точно (доверие 1) [3C395493] (AR v1)
Трек 2 : извлечено точно (доверие 1) [EE94132E] (AR v1)
Трек 3 : извлечено точно (доверие 1) [AFEE2732] (AR v1)
Трек 4 : извлечено точно (доверие 1) [59FD74E9] (AR v1)
Трек 5 : извлечено точно (доверие 1) [D03AF264] (AR v1)
Трек 6 : извлечено точно (доверие 1) [A92314FA] (AR v1)
Трек 7 : извлечено точно (доверие 1) [6AF20CA4] (AR v1)
Трек 8 : извлечено точно (доверие 1) [2127F863] (AR v1)

Все треки извлечены точно

Конец отчёта

==== Контрольная сумма отчёта 96408F59285284BDAC78B463E85F6AAAD214DD577EA03760344B73A7E7166812 ====

cue
REM GENRE "Hard Rock"
REM DATE 1977
REM DISCID 7007CA08
REM COMMENT "ExactAudioCopy v1.0b3"
PERFORMER "Heavy Metal Kids"
TITLE "Kitsch [TOCP-8444]"
FILE "Heavy Metal Kids - Kitsch.flac" WAVE
TRACK 01 AUDIO
TITLE "Overture"
PERFORMER "Heavy Metal Kids"
INDEX 01 00:00:00
TRACK 02 AUDIO
TITLE "Chelsea Kids"
PERFORMER "Heavy Metal Kids"
INDEX 01 02:43:12
TRACK 03 AUDIO
TITLE "From Heaven To Hell And Back Again"
PERFORMER "Heavy Metal Kids"
INDEX 00 07:02:25
INDEX 01 07:02:52
TRACK 04 AUDIO
TITLE "Cry For Me"
PERFORMER "Heavy Metal Kids"
INDEX 00 11:24:27
INDEX 01 11:26:40
TRACK 05 AUDIO
TITLE "She's No Angel"
PERFORMER "Heavy Metal Kids"
INDEX 00 16:36:02
INDEX 01 16:36:62
TRACK 06 AUDIO
TITLE "Jackie The Lad"
PERFORMER "Heavy Metal Kids"
INDEX 00 20:15:20
INDEX 01 20:15:70
TRACK 07 AUDIO
TITLE "Docking In"
PERFORMER "Heavy Metal Kids"
INDEX 00 22:53:62
INDEX 01 22:54:37
TRACK 08 AUDIO
TITLE "Squalliday Inn"
PERFORMER "Heavy Metal Kids"
INDEX 00 26:51:32
INDEX 01 26:52:70

_________________
Коль будешь людей ты ослами честить,
тебе человеком меж них не прослыть!
(Саади, персидский поэт, 13в.)


Top
 Profile  
 
 
PostPosted: 12 Aug 2014 
Хиппей (support team)
User avatar
Joined: 30 Jul 2007
Posts: 105055
Lоcаtion: Киев (Kyiv, UA)
Age: 45
Name: Andrey
:thanx:

mirror: Narod l M-Cloud

_________________


Top
 Profile E-mail  
 
 
PostPosted: 12 Aug 2014 
Хиппей (support team)
User avatar
Joined: 30 Jul 2007
Posts: 105055
Lоcаtion: Киев (Kyiv, UA)
Age: 45
Name: Andrey
Звучание у группы стало помягче, более глэмовое (игривое), но зато намного хитовее и мелодичнее :meloman:

зы. Ага, и этот альбом уже точно неформатный :pardon:

_________________


Top
 Profile E-mail  
 
 
PostPosted: 12 Aug 2014 
парень в очёчкXаX!
User avatar
Joined: 15 Aug 2007
Posts: 2353
Lоcаtion: UK'раина, г. ЛондАн Би-Би-Си
Age: 47
Name: Сергей
зы. Ага, и этот альбом уже точно неформатный

я приготовился написать фразу: "вот ща выйдет Андрушек и напишет, шо этот албумус 100% неформатен..........."

да, так и есть, он вышел и сказал :true: :pardon:

пы-зы: сложный, очень сложный, заувалированный Тошибовский рэм, ну очень сложный (
тут звук для высоких аппаратов............да, ипошки они такие :cry:


Top
 Profile  
 
 
PostPosted: 25 Sep 2014 
Доктор энтомологии
User avatar
Joined: 22 Jan 2009
Posts: 9181
Lоcаtion: Даугавпилс
Age: 43
Name: Алексей
:thanx:


Top
 Profile  
 
 
PostPosted: 26 Sep 2014 
Я набрал 1000 сообщений!
Joined: 24 Oct 2009
Posts: 1987
Lоcаtion: Оренбург
Age: 54
Name: Юра
И за 1977 Спасибо!

_________________
:dash: I am happy!


Top
 Profile E-mail  
 
Display posts from previous:  Sort by  
Post new topic Reply to topic  [ 34 posts ]  Go to page Previous  1, 2

All times are UTC + 3 hours


Who is online

Users browsing this forum: No registered users and 4 guests


You cannot post new topics in this forum
You cannot reply to topics in this forum
You cannot edit your posts in this forum
You cannot delete your posts in this forum
You cannot post attachments in this forum

Search for:
Яндекс.Метрика
Powered by phpBB © 2000, 2002, 2005, 2007 phpBB Group