\m/ 80's metal \m/

Информационно-аналитический форум "80 см пыли" (In Search We Trust) "У нас никто никуда не спешит"
Me For You - http://me-4u.com
It is currently 21 Nov 2018

All times are UTC + 3 hours

Spoiler
Chat - temporary registration for foreign users (please leave your application here)







Post new topic Reply to topic  [ 2 posts ] 
Author Message
 
PostPosted: 26 May 2014 
Хиппей (support team)
User avatar
Joined: 30 Jul 2007
Posts: 108243
Lоcаtion: Киев (Kyiv, UA)
Age: 45
Name: Andrey
Hades - 1993 - [Nor] - Alone Walkyng (demo) [flacs] - tape rip

Image


    1. Unholy Congregation - 06:07
    2. Hecate (Queen of Hades) - 04:21
    3. Alone Walkyng - 10:03

    TPT: 20:31

mirror: Narod l M-Cloud

Группа считается блэк-металлической. Но... Данная демка эта эдакая утяжеленная и грязноватая версия Bathory :meloman:


Благодарим за подгон кассетного рипа товарища Леонида :thanx:

log
Exact Audio Copy V0.99 prebeta 5 from 4. May 2009

EAC extraction logfile from 2. August 2011, 23:06

Hades Almighty / Alone Walkyng

Used drive : PLEXTOR DVDR PX-760A Adapter: 1 ID: 0

Read mode : Secure
Utilize accurate stream : Yes
Defeat audio cache : Yes
Make use of C2 pointers : Yes

Read offset correction : 30
Overread into Lead-In and Lead-Out : Yes
Fill up missing offset samples with silence : Yes
Delete leading and trailing silent blocks : No
Null samples used in CRC calculations : Yes
Used interface : Installed external ASPI interface

Used output format : Internal WAV Routines
Sample format : 44.100 Hz; 16 Bit; Stereo


TOC of the extracted CD

Track | Start | Length | Start sector | End sector
---------------------------------------------------------
1 | 0:00.00 | 6:09.56 | 0 | 27730
2 | 6:09.56 | 4:26.31 | 27731 | 47711
3 | 10:36.12 | 10:19.13 | 47712 | 94149
4 | 20:55.25 | 6:10.28 | 94150 | 121927
5 | 27:05.53 | 4:28.59 | 121928 | 142086
6 | 31:34.37 | 10:16.23 | 142087 | 188309


Range status and errors

Selected range

Filename O:\ToFlac\Hades Almighty\Hades Almighty - Alone Walkyng.wav

Peak level 100.0 %
Range quality 100.0 %
Copy CRC 65CAD869
Copy OK

No errors occurred

End of status report

_________________


Top
 Profile E-mail  
 
 
PostPosted: 27 May 2014 
5-speed satisfactor
User avatar
Joined: 16 Feb 2009
Posts: 3622
Lоcаtion: New York, USA
Age: 40
Name: Leonid
:thanx:

Не было времени на оформление. Сразу говорю, что здесь звук в 100 лучше, чем на CD переиздании.

_________________
Death rules! Metal to all who oppose!


Top
 Profile  
 
Display posts from previous:  Sort by  
Post new topic Reply to topic  [ 2 posts ] 

All times are UTC + 3 hours


Who is online

Users browsing this forum: No registered users and 3 guests


You cannot post new topics in this forum
You cannot reply to topics in this forum
You cannot edit your posts in this forum
You cannot delete your posts in this forum
You cannot post attachments in this forum

Search for:
Яндекс.Метрика
Powered by phpBB © 2000, 2002, 2005, 2007 phpBB Group