\m/ 80's metal \m/

Информационно-аналитический форум "80 см пыли" (In Search We Trust) "У нас никто никуда не спешит"
Me For You - http://me-4u.com
It is currently 24 Sep 2018

All times are UTC + 3 hours

Spoiler
Chat - temporary registration for foreign users (please leave your application here)







Post new topic Reply to topic  [ 12 posts ] 
Author Message
 
PostPosted: 25 Mar 2014 
Генеральный thrasher
User avatar
Joined: 03 Oct 2008
Posts: 3450
Lоcаtion: Ханты-Мансийский АО
Age: 43
Name: Сергей
Image

Year:2004
Style:Speed/Thrash Metal
Country:U.S.A.
Audio:Flac+Cue+Log+Scans
Size:530Mb
Source:my CD
Label:Marquee Records

Tracklist:
01. Show Me Your Rage 02:48
02. Haunted House 04:35
03. Death Watch 03:40
04. The End 02:31
05. Have Mercy 03:57
06. The Slayer 04:05
07. Mass Destruction 04:07
08. The Omen 04:14
09. Holy Dismissal 05:47
10. City Of Doom 05:28
11. An Introit To Evil 07:20
12. Hells Haven 06:26
13. Sacrament Of The Sick 04:36
14. In Misery 05:57
15. Solemnly Sworn 02:46
16. Vendetta 03:00
17. Bedlam 04:01
18. Nuclear Crucifixion 03:09
"Об альбоме"
Компиляция творчества старенькой американской команды.Музыка для любителей таких групп,как Bloodlust,Abattoir,Agent Steel etc.
Включает в себя:
Tracks 1-6: "Pleading for Mercy", demo 1984.
Tracks 7-11: "Mass Destruction", demo 1985.
Tracks 12-13: "Demo 1987".
Tracks 14-18: "Morbid Reality", demo 1988.


"Cue
REM GENRE "Thrash Metal"
REM DATE 2004
REM DISCID 04126A12
REM COMMENT "ExactAudioCopy v0.99pb5"
PERFORMER "Have Mercy"
TITLE "The Years of Mercy"
FILE "Have Mercy - The Years of Mercy.flac" WAVE
TRACK 01 AUDIO
TITLE "Show Me Your Rage"
PERFORMER "Have Mercy"
INDEX 01 00:00:00
TRACK 02 AUDIO
TITLE "Haunted House"
PERFORMER "Have Mercy"
INDEX 01 02:48:15
TRACK 03 AUDIO
TITLE "Death Watch"
PERFORMER "Have Mercy"
INDEX 01 07:23:63
TRACK 04 AUDIO
TITLE "The End"
PERFORMER "Have Mercy"
INDEX 01 11:04:53
TRACK 05 AUDIO
TITLE "Have Mercy"
PERFORMER "Have Mercy"
INDEX 01 13:36:20
TRACK 06 AUDIO
TITLE "The Slayer"
PERFORMER "Have Mercy"
INDEX 01 17:34:03
TRACK 07 AUDIO
TITLE "Mass Destruction"
PERFORMER "Have Mercy"
INDEX 01 21:39:42
TRACK 08 AUDIO
TITLE "The Omen"
PERFORMER "Have Mercy"
INDEX 01 25:46:54
TRACK 09 AUDIO
TITLE "Holy Dismissal"
PERFORMER "Have Mercy"
INDEX 01 30:01:36
TRACK 10 AUDIO
TITLE "City of Doom"
PERFORMER "Have Mercy"
INDEX 01 35:49:11
TRACK 11 AUDIO
TITLE "An Introit to Evil"
PERFORMER "Have Mercy"
INDEX 01 41:17:24
TRACK 12 AUDIO
TITLE "Hells Haven"
PERFORMER "Have Mercy"
INDEX 01 48:37:36
TRACK 13 AUDIO
TITLE "Sacrament of the Sick"
PERFORMER "Have Mercy"
INDEX 01 55:03:72
TRACK 14 AUDIO
TITLE "In Misery"
PERFORMER "Have Mercy"
INDEX 01 59:40:11
TRACK 15 AUDIO
TITLE "Solemnly Sworn"
PERFORMER "Have Mercy"
INDEX 01 65:37:65
TRACK 16 AUDIO
TITLE "Vendetta"
PERFORMER "Have Mercy"
INDEX 01 68:24:01
TRACK 17 AUDIO
TITLE "Bedlam"
PERFORMER "Have Mercy"
INDEX 01 71:24:14
TRACK 18 AUDIO
TITLE "Nuclear Crucifixion"
PERFORMER "Have Mercy"
INDEX 01 75:25:52

"Log"
Exact Audio Copy V0.99 prebeta 5 from 4. May 2009

Отчёт EAC об извлечении, выполненном 22. января 2014, 13:50

Have Mercy / The Years of Mercy

Дисковод: MATSHITADVD-RAM UJ8A0AS Adapter: 0 ID: 1

Режим чтения : Достоверность
Использование точного потока : Да
Отключение кэша аудио : Да
Использование указателей C2 : Нет

Коррекция смещения при чтении : 102
Способность читать области Lead-in и Lead-out : Нет
Заполнение пропущенных сэмплов тишиной : Да
Удаление блоков с тишиной в начале и конце : Нет
При вычислениях CRC использовались нулевые сэмплы : Да
Интерфейс : Встроенный Win32-интерфейс для Win NT/2000

Выходной формат : Пользовательский кодировщик
Выбранный битрейт : 1024 kBit/s
Качество : Высокий
Добавление ID3-тэга : Нет
Утилита сжатия : C:\Program Files\Exact Audio Copy\FLAC\FLAC.EXE
Дополнительные параметры : -6 -V -T "ARTIST=%a" -T "TITLE=%t" -T "ALBUM=%g" -T "DATE=%y" -T "TRACKNUMBER=%n" -T "GENRE=%m" -T "COMMENT=%e" %s -o %d


TOC извлечённого CD

Трек | Старт | Длительность | Начальный сектор | Конечный сектор
---------------------------------------------------------------------
1 | 0:00.00 | 2:48.15 | 0 | 12614
2 | 2:48.15 | 4:35.48 | 12615 | 33287
3 | 7:23.63 | 3:40.65 | 33288 | 49852
4 | 11:04.53 | 2:31.42 | 49853 | 61219
5 | 13:36.20 | 3:57.58 | 61220 | 79052
6 | 17:34.03 | 4:05.39 | 79053 | 97466
7 | 21:39.42 | 4:07.12 | 97467 | 116003
8 | 25:46.54 | 4:14.57 | 116004 | 135110
9 | 30:01.36 | 5:47.50 | 135111 | 161185
10 | 35:49.11 | 5:28.13 | 161186 | 185798
11 | 41:17.24 | 7:20.12 | 185799 | 218810
12 | 48:37.36 | 6:26.36 | 218811 | 247796
13 | 55:03.72 | 4:36.14 | 247797 | 268510
14 | 59:40.11 | 5:57.54 | 268511 | 295339
15 | 65:37.65 | 2:46.11 | 295340 | 307800
16 | 68:24.01 | 3:00.13 | 307801 | 321313
17 | 71:24.14 | 4:01.38 | 321314 | 339426
18 | 75:25.52 | 3:09.19 | 339427 | 353620


Характеристики диапазона извлечения и сообщения об ошибках

Выбранный диапазон

Имя файла C:\Users\эксперт\Music\Have Mercy - The Years of Mercy.wav

Пиковый уровень 100.0 %
Качество диапазона 99.9 %
CRC копии 9DFEBF3E
Копирование... OK

Ошибок не произошло


AccurateRip: сводка

Трек 1 точное извлечение (доверие 4) [748D8DA4]
Трек 2 точное извлечение (доверие 4) [CAC3747B]
Трек 3 точное извлечение (доверие 4) [11F8DE3E]
Трек 4 точное извлечение (доверие 4) [FB33BAC4]
Трек 5 точное извлечение (доверие 4) [049D23CE]
Трек 6 точное извлечение (доверие 4) [0AB2B5C4]
Трек 7 точное извлечение (доверие 5) [87279660]
Трек 8 точное извлечение (доверие 5) [299052A5]
Трек 9 точное извлечение (доверие 5) [8DD808D1]
Трек 10 точное извлечение (доверие 5) [C8ADCEDA]
Трек 11 точное извлечение (доверие 4) [5811291C]
Трек 12 точное извлечение (доверие 4) [647363DD]
Трек 13 точное извлечение (доверие 4) [471F67CF]
Трек 14 точное извлечение (доверие 4) [5E9945A7]
Трек 15 точное извлечение (доверие 4) [522989A3]
Трек 16 точное извлечение (доверие 4) [38B4CC8E]
Трек 17 точное извлечение (доверие 4) [97581A1A]
Трек 18 точное извлечение (доверие 3) [052B1F76]

Все треки извлечены точно

Конец отчёта


The Years Of Mercy


Top
 Profile  
 
 
PostPosted: 25 Mar 2014 
А может смените мне статус?..
User avatar
Joined: 28 Jul 2008
Posts: 907
Lоcаtion: Украина---Днепропетровск
Age: 44
Name: Александр
:thanx:

_________________
Музыка в которой я растворяюсь многих угнетает......


Top
 Profile  
 
 
PostPosted: 25 Mar 2014 
Труъ
User avatar
Joined: 27 Feb 2009
Posts: 185
Lоcаtion: Питер
Age: 51
Name: Олег
Не слышал таких , спасибо !


Top
 Profile  
 
 
PostPosted: 25 Mar 2014 
\m/ 80 см сала \m/
User avatar
Joined: 12 Mar 2012
Posts: 2588
Age: 25
Name: Nick
:thanx:
Quote:
Vinyl limited to 500 copies. Issued on CD by Marquee Records (MR 012).

Tracks 1-6: "Pleading for Mercy", demo 1984.
Tracks 7-11: "Mass Destruction", demo 1985.
Tracks 12-13: "Demo 1987".
Tracks 14-18: "Morbid Reality", demo 1988.

mirrors:
Narod | rusfolder (part 1, part 2)

_________________
1990 AUROPHON BRAINSTORM (Germany) - lossless
1994 MAUSOLEUM CLASSIX (Belgium-Germany) - lossless
1998 VA - GRIM HARVEST - Complete Metal Massacre Volumes I-XII


Top
 Profile  
 
 
PostPosted: 25 Mar 2014 
Хиппей (support team)
User avatar
Joined: 30 Jul 2007
Posts: 106533
Lоcаtion: Киев (Kyiv, UA)
Age: 45
Name: Andrey
:thanx:

mirror: Narod l M-Cloud

_________________


Top
 Profile E-mail  
 
 
PostPosted: 25 Mar 2014 
Прокъмитолист
User avatar
Joined: 12 Aug 2007
Posts: 6473
Lоcаtion: Санктъ-Петербуркъ
Age: 50
Name: Олекъ
:thanx: :true:

_________________
прокъметол - это музыко, от которово есть прок (ы)


Top
 Profile  
 
 
PostPosted: 25 Mar 2014 
спирт 100%
User avatar
Joined: 22 Sep 2008
Posts: 4282
Age: 47
Name: Саня
:thanx:


Top
 Profile  
 
 
PostPosted: 25 Mar 2014 
Alive Again
User avatar
Joined: 17 Dec 2008
Posts: 4686
Lоcаtion: Курск Воронеж Оскол
Age: 44
Name: Дмитрий
:thanx:


Top
 Profile E-mail  
 
 
PostPosted: 25 Mar 2014 
Хиппей (support team)
User avatar
Joined: 30 Jul 2007
Posts: 106533
Lоcаtion: Киев (Kyiv, UA)
Age: 45
Name: Andrey
Как-то не покатил сборничег. Грустен.
Или нужно его расслушать нормально :vic:

_________________


Top
 Profile E-mail  
 
 
PostPosted: 25 Mar 2014 
Анатолий
User avatar
Joined: 18 Oct 2008
Posts: 3119
Lоcаtion: Армавир
Age: 41
Name: Анатолий
Спасибо, Сергей! :thanx: :true:


Top
 Profile E-mail  
 
 
PostPosted: 26 Mar 2014 
Дежурный по КУПу
User avatar
Joined: 17 Aug 2007
Posts: 5869
Age: 50
Name: Ге
:thanx:

_________________
http://jp-mania.ru/
http://jp-tourdates.ucoz.ru/


Top
 Profile  
 
 
PostPosted: 26 Mar 2014 
Генеральный thrasher
User avatar
Joined: 03 Oct 2008
Posts: 3450
Lоcаtion: Ханты-Мансийский АО
Age: 43
Name: Сергей
Как-то не покатил сборничег. Грустен.
Или нужно его расслушать нормально :vic:


Да,звучит довольно таки архаично...Но слушать можно.


Top
 Profile  
 
Display posts from previous:  Sort by  
Post new topic Reply to topic  [ 12 posts ] 

All times are UTC + 3 hours


Who is online

Users browsing this forum: No registered users and 2 guests


You cannot post new topics in this forum
You cannot reply to topics in this forum
You cannot edit your posts in this forum
You cannot delete your posts in this forum
You cannot post attachments in this forum

Search for:
Яндекс.Метрика
Powered by phpBB © 2000, 2002, 2005, 2007 phpBB Group