\m/ 80's metal \m/

Информационно-аналитический форум "80 см пыли" (In Search We Trust) "У нас никто никуда не спешит"
Me For You - http://me-4u.com
It is currently 21 Nov 2018

All times are UTC + 3 hours

Spoiler
Chat - temporary registration for foreign users (please leave your application here)







Post new topic Reply to topic  [ 32 posts ]  Go to page 1, 2  Next
Author Message
 
PostPosted: 12 Jan 2014 
\m/ 80 см сала \m/
User avatar
Joined: 12 Mar 2012
Posts: 2589
Age: 25
Name: Nick
Image

High Tension (DE) - 2007 - The High Tension Legacy (Compilation)

cd1
1. Wind Me Up 05:03
2. Shake Off the Hunter 04:35
3. Rock'n'Roll Rebel 04:19
4. Burning Heart 05:16
5. Work Hard, Die Young 04:20
6. Rock Down 03:50
7. Stay the Night 04:34
8. Lady... 04:08
9. Hot Legs 04:18
10. Hard Lies 04:11
11. Kings and Queens 03:27
12. Leather Beauty 04:28
13. Crazy World 04:03
14. In the Eyes of the Law 03:45
15. Intro 00:58
16. Stiletto Heels 03:55
17. Sweet Fourteen 04:21
18. Invaders from Space 04:02
19. The M.O.M. Fanfare 04:58

cd2
1. Warrior 04:19
2. Get Ready for Love 03:15
3. In Time 03:22
4. She Said: Rock'n'Roll 02:48
5. Man on the Run 03:49
6. Rock City 02:50
7. Summernights 03:12
8. Between the Lines 03:55
9. Neon Lights 04:27
10. Unchained 03:33
11. Touch of Steel 04:33
12. Crying Angel 03:48
13. Hard Way to Go 04:42
14. Into My Heart 04:51
15. Down Dirty 04:27
16. One Step to Paradise 04:39


Двухдисковая компиляция от мексиканцев Blower Records, #blower007-07 Включает в себя три первых альбома + 6 пять неизданных ранее композиций.

_________________
1990 AUROPHON BRAINSTORM (Germany) - lossless
1994 MAUSOLEUM CLASSIX (Belgium-Germany) - lossless
1998 VA - GRIM HARVEST - Complete Metal Massacre Volumes I-XII


Last edited by Everhard on 12 Jan 2014, edited 1 time in total.

Top
 Profile  
 
 
PostPosted: 12 Jan 2014 
А может смените мне статус?..
User avatar
Joined: 22 Nov 2008
Posts: 964
Lоcаtion: Schelcovo,Russia
Age: 47
Name: Сергей
"итальянцев Blower Records"
Это вроде мексы??? :umnik:


Top
 Profile  
 
 
PostPosted: 12 Jan 2014 
\m/ 80 см сала \m/
User avatar
Joined: 12 Mar 2012
Posts: 2589
Age: 25
Name: Nick
Ой, тьфу, а флаг-то на мюзик-сэмплере реально мексиканский :shok:
исправил, спасибо

_________________
1990 AUROPHON BRAINSTORM (Germany) - lossless
1994 MAUSOLEUM CLASSIX (Belgium-Germany) - lossless
1998 VA - GRIM HARVEST - Complete Metal Massacre Volumes I-XII


Top
 Profile  
 
 
PostPosted: 13 Jan 2014 
Рарник и трушник
User avatar
Joined: 25 Dec 2009
Posts: 8423
Lоcаtion: Москва
Age: 53
Name: Виталий
Ник, а зачем тебе это убогое издание? Из-за бонусов только?
Первый цид не интересен, там 2 и 3-й альбомы с клиппингом. Второй цид - там 1-й альбом с перевёрнутой фазой и клиппингом. Бонуса только приемлемы, видно лень было их улучшать. :benya:


Top
 Profile  
 
 
PostPosted: 13 Jan 2014 
\m/ 80 см сала \m/
User avatar
Joined: 12 Mar 2012
Posts: 2589
Age: 25
Name: Nick
Во-во, мне только бонусы по сути и нужны - остальное есть в нормальных лосях с изданий Hot Blood и Musicolor. Бутлег первого альбома Слава выкладывал, да и еще есть весьма недурный рип от Ревичи.
Виталь, если есть энта компиляха - могёшь залосить мне бонус треки? :oops:
p.s. уря, в моей деревне снег выпал :benya:

_________________
1990 AUROPHON BRAINSTORM (Germany) - lossless
1994 MAUSOLEUM CLASSIX (Belgium-Germany) - lossless
1998 VA - GRIM HARVEST - Complete Metal Massacre Volumes I-XII


Top
 Profile  
 
 
PostPosted: 13 Jan 2014 
Рарник и трушник
User avatar
Joined: 25 Dec 2009
Posts: 8423
Lоcаtion: Москва
Age: 53
Name: Виталий
Everhard wrote:
Виталь, если есть энта компиляха - могёшь залосить мне бонус треки?

ОК, сделаю на днях. :true:


Top
 Profile  
 
 
PostPosted: 13 Jan 2014 
\m/ 80 см сала \m/
User avatar
Joined: 12 Mar 2012
Posts: 2589
Age: 25
Name: Nick
Кстати, раз пошла такая пьянка - у тебя 1987 - Masters Of Madness есть в переиздании Aurophon? Хочу в будущем сделать коллектор по Аурофоновской серии. В сети прямо беда какая-то - то ссылки умерли, то закрытый док :pardon:
И еще на правах оффтопа:
тынц
Сегодня стянул с рутра лосей Tyrant, среди них два рипа от LiserLight - другая обложка\другое название альбома. Вопрос касаемо этого лейбла - почему так? Желание продать старое в новой обертке?

_________________
1990 AUROPHON BRAINSTORM (Germany) - lossless
1994 MAUSOLEUM CLASSIX (Belgium-Germany) - lossless
1998 VA - GRIM HARVEST - Complete Metal Massacre Volumes I-XII


Top
 Profile  
 
 
PostPosted: 13 Jan 2014 
Генеральный thrasher
User avatar
Joined: 03 Oct 2008
Posts: 3510
Lоcаtion: Ханты-Мансийский АО
Age: 43
Name: Сергей
Я у себя нашёл в коллекции аж в двух вариантах - потрэковый и образом с MMT.Оба без картинок.


Top
 Profile  
 
 
PostPosted: 13 Jan 2014 
Рарник и трушник
User avatar
Joined: 25 Dec 2009
Posts: 8423
Lоcаtion: Москва
Age: 53
Name: Виталий
Everhard wrote:
Сегодня стянул с рутра лосей Tyrant, среди них два рипа от LiserLight - другая обложка\другое название альбома. Вопрос касаемо этого лейбла - почему так? Желание продать старое в новой обертке?

Да у ЛазерЛайта все Гаммовские релизы с другими облогами, лейбл такой левый, впендюрили карикатурные облоги, и типа да, для продажи. Да им эти релизы после развала Гаммы задарма достались, вот и решили продать. Других релизов этих Тирантов нету (ну, за исключением переиздания мексиканцев с подачи Картаги, которые с этих ЛазерЛайтовских релизов сделаны). Очень жаль, что они не издали Stranger-85, Vampyr-86, Renegade-86, Stormwitch-85 и ещё некоторые альбомы. По паре песен с этих альбомов есть на разных сборниках, значит были оцифрованы и сами альбомы, да вот не повезло. :umnik:
Everhard wrote:
у тебя 1987 - Masters Of Madness есть в переиздании Aurophon?

Вот нету, тока Лазерлайтовский релиз.


Top
 Profile  
 
 
PostPosted: 13 Jan 2014 
\m/ 80 см сала \m/
User avatar
Joined: 12 Mar 2012
Posts: 2589
Age: 25
Name: Nick
thorbeorn wrote:
Я у себя нашёл в коллекции аж в двух вариантах - потрэковый и образом с MMT.Оба без картинок.

Серёж, ты компиляцию имеешь в виду? А можешь со второго диска залить следующие песни:
12. Crying Angel 03:48
13. Hard Way to Go 04:42
14. Into My Heart 04:51
15. Down Dirty 04:27
16. One Step to Paradise 04:39
Или всю компиляцию сразу, Виталию тогда и рипать не надо ничего :thanx:

_________________
1990 AUROPHON BRAINSTORM (Germany) - lossless
1994 MAUSOLEUM CLASSIX (Belgium-Germany) - lossless
1998 VA - GRIM HARVEST - Complete Metal Massacre Volumes I-XII


Top
 Profile  
 
 
PostPosted: 13 Jan 2014 
Генеральный thrasher
User avatar
Joined: 03 Oct 2008
Posts: 3510
Lоcаtion: Ханты-Мансийский АО
Age: 43
Name: Сергей
Да конечно,завтра утречком залью.


Top
 Profile  
 
 
PostPosted: 13 Jan 2014 
А может смените мне статус?..
User avatar
Joined: 22 Nov 2008
Posts: 964
Lоcаtion: Schelcovo,Russia
Age: 47
Name: Сергей
Everhard wrote:
Сегодня стянул с рутра лосей Tyrant, среди них два рипа от LiserLight - другая обложка\другое название альбома. Вопрос касаемо этого лейбла - почему так? Желание продать старое в новой обертке?

Да у ЛазерЛайта все Гаммовские релизы с другими облогами, лейбл такой левый, впендюрили карикатурные облоги, и типа да, для продажи. Да им эти релизы после развала Гаммы задарма достались, вот и решили продать. Других релизов этих Тирантов нету (ну, за исключением переиздания мексиканцев с подачи Картаги, которые с этих ЛазерЛайтовских релизов сделаны). Очень жаль, что они не издали Stranger-85, Vampyr-86, Renegade-86, Stormwitch-85 и ещё некоторые альбомы. По паре песен с этих альбомов есть на разных сборниках, значит были оцифрованы и сами альбомы, да вот не повезло. :umnik:
Everhard wrote:
у тебя 1987 - Masters Of Madness есть в переиздании Aurophon?

Вот нету, тока Лазерлайтовский релиз.


:shok: разве это плохая облога?
Image


Top
 Profile  
 
 
PostPosted: 13 Jan 2014 
Хиппей (support team)
User avatar
Joined: 30 Jul 2007
Posts: 108248
Lоcаtion: Киев (Kyiv, UA)
Age: 45
Name: Andrey
snider1971 wrote:
разве это плохая облога?

Мне нравится. Правда http://www.metal-archives.com/bands/Tyrant/1681 в официальной дискографии я его не вижу :vic:

Vitaly65 wrote:
Да у ЛазерЛайта все Гаммовские релизы с другими облогами, лейбл такой левый, впендюрили карикатурные облоги, и типа да, для продажи. Да им эти релизы после развала Гаммы задарма достались, вот и решили продать. Других релизов этих Тирантов нету (ну, за исключением переиздания мексиканцев с подачи Картаги, которые с этих ЛазерЛайтовских релизов сделаны). Очень жаль, что они не издали Stranger-85, Vampyr-86, Renegade-86, Stormwitch-85 и ещё некоторые альбомы. По паре песен с этих альбомов есть на разных сборниках, значит были оцифрованы и сами альбомы, да вот не повезло.

:thanx: Забираю и эту историю в кубышку :dance:

_________________


Top
 Profile E-mail  
 
 
PostPosted: 13 Jan 2014 
Рарник и трушник
User avatar
Joined: 25 Dec 2009
Posts: 8423
Lоcаtion: Москва
Age: 53
Name: Виталий
snider1971 wrote:
:shok: разве это плохая облога?

Да как-то явно хуже, чем оригинальная, не находите? :benya:
Карикатурой из Крокодила отдаёт как-то. :benya:
Image
Особенно эта. :benya:
Image


Top
 Profile  
 
 
PostPosted: 13 Jan 2014 
Хиппей (support team)
User avatar
Joined: 30 Jul 2007
Posts: 108248
Lоcаtion: Киев (Kyiv, UA)
Age: 45
Name: Andrey
А мне все 4 нравятся. Даже с Иванушкой :true:

зы. Впочем дурацкий кулак с шипами как раз и не нравится :pardon:

ыз. Жа, и я один туплю. Зачем было менять название альбома? :vic:

_________________


Top
 Profile E-mail  
 
 
PostPosted: 13 Jan 2014 
А может смените мне статус?..
User avatar
Joined: 22 Nov 2008
Posts: 964
Lоcаtion: Schelcovo,Russia
Age: 47
Name: Сергей
Ruling the world - хороша.
в этом случаи не поспоришь. :pardon:
Надо каждое переиздание с новыми обложками делать.
Так же интереснее?


Top
 Profile  
 
 
PostPosted: 14 Jan 2014 
Хиппей (support team)
User avatar
Joined: 30 Jul 2007
Posts: 108248
Lоcаtion: Киев (Kyiv, UA)
Age: 45
Name: Andrey
snider1971 wrote:
Надо каждое переиздание с новыми обложками делать.
Так же интереснее?

Да-да, и новым названием для альбомов. Меломаны будут путаться, но раскупать :true:

_________________


Top
 Profile E-mail  
 
 
PostPosted: 14 Jan 2014 
Генеральный thrasher
User avatar
Joined: 03 Oct 2008
Posts: 3510
Lоcаtion: Ханты-Мансийский АО
Age: 43
Name: Сергей
"CD1 Cue"
REM GENRE "Heavy Metal"
REM DATE 2007
REM DISCID 12126513
REM COMMENT "ExactAudioCopy v0.99pb5"
PERFORMER "High Tension"
TITLE "Legacy (CD1)"
FILE "High Tension - Legacy (CD1) - 01 - Wind Me Up ('Under Tension' 1986).wav" WAVE
TRACK 01 AUDIO
TITLE "Wind Me Up ('Under Tension' 1986)"
PERFORMER "High Tension"
ISRC 000000000000
FLAGS DCP
INDEX 01 00:00:00
FILE "High Tension - Legacy (CD1) - 02 - Shake Off The Hunter ('Under Tension' 1986).wav" WAVE
TRACK 02 AUDIO
TITLE "Shake Off The Hunter ('Under Tension' 1986)"
PERFORMER "High Tension"
ISRC 000000000000
FLAGS DCP
INDEX 01 00:00:00
FILE "High Tension - Legacy (CD1) - 03 - Rock-N-Roll Rebel ('Under Tension' 1986).wav" WAVE
TRACK 03 AUDIO
TITLE "Rock-N-Roll Rebel ('Under Tension' 1986)"
PERFORMER "High Tension"
ISRC 000000000000
FLAGS DCP
INDEX 01 00:00:00
FILE "High Tension - Legacy (CD1) - 04 - Burning Heart ('Under Tension' 1986).wav" WAVE
TRACK 04 AUDIO
TITLE "Burning Heart ('Under Tension' 1986)"
PERFORMER "High Tension"
ISRC 000000000000
FLAGS DCP
INDEX 01 00:00:00
FILE "High Tension - Legacy (CD1) - 05 - Work Hard, Die Young ('Under Tension' 1986).wav" WAVE
TRACK 05 AUDIO
TITLE "Work Hard, Die Young ('Under Tension' 1986)"
PERFORMER "High Tension"
ISRC 000000000000
FLAGS DCP
INDEX 01 00:00:00
FILE "High Tension - Legacy (CD1) - 06 - Rock Down ('Under Tension' 1986).wav" WAVE
TRACK 06 AUDIO
TITLE "Rock Down ('Under Tension' 1986)"
PERFORMER "High Tension"
ISRC 000000000000
FLAGS DCP
INDEX 01 00:00:00
FILE "High Tension - Legacy (CD1) - 07 - Stay The Night ('Under Tension' 1986).wav" WAVE
TRACK 07 AUDIO
TITLE "Stay The Night ('Under Tension' 1986)"
PERFORMER "High Tension"
ISRC 000000000000
FLAGS DCP
INDEX 01 00:00:00
FILE "High Tension - Legacy (CD1) - 08 - Lady ('Under Tension' 1986).wav" WAVE
TRACK 08 AUDIO
TITLE "Lady ('Under Tension' 1986)"
PERFORMER "High Tension"
ISRC 000000000000
FLAGS DCP
INDEX 01 00:00:00
FILE "High Tension - Legacy (CD1) - 09 - Hot Legs ('Under Tension' 1986).wav" WAVE
TRACK 09 AUDIO
TITLE "Hot Legs ('Under Tension' 1986)"
PERFORMER "High Tension"
ISRC 000000000000
FLAGS DCP
INDEX 01 00:00:00
FILE "High Tension - Legacy (CD1) - 10 - Hard Lies ('Masters Of Madness' 1987).wav" WAVE
TRACK 10 AUDIO
TITLE "Hard Lies ('Masters Of Madness' 1987)"
PERFORMER "High Tension"
ISRC 000000000000
FLAGS DCP
INDEX 01 00:00:00
FILE "High Tension - Legacy (CD1) - 11 - Kings & Queens ('Masters Of Madness' 1987).wav" WAVE
TRACK 11 AUDIO
TITLE "Kings & Queens ('Masters Of Madness' 1987)"
PERFORMER "High Tension"
ISRC 000000000000
FLAGS DCP
INDEX 01 00:00:00
FILE "High Tension - Legacy (CD1) - 12 - Leather Beauty ('Masters Of Madness' 1987).wav" WAVE
TRACK 12 AUDIO
TITLE "Leather Beauty ('Masters Of Madness' 1987)"
PERFORMER "High Tension"
ISRC 000000000000
FLAGS DCP
INDEX 01 00:00:00
FILE "High Tension - Legacy (CD1) - 13 - Crazy World ('Masters Of Madness' 1987).wav" WAVE
TRACK 13 AUDIO
TITLE "Crazy World ('Masters Of Madness' 1987)"
PERFORMER "High Tension"
ISRC 000000000000
FLAGS DCP
INDEX 01 00:00:00
FILE "High Tension - Legacy (CD1) - 14 - Eyes Of The Law ('Masters Of Madness' 1987).wav" WAVE
TRACK 14 AUDIO
TITLE "Eyes Of The Law ('Masters Of Madness' 1987)"
PERFORMER "High Tension"
ISRC 000000000000
FLAGS DCP
INDEX 01 00:00:00
FILE "High Tension - Legacy (CD1) - 15 - Intro ('Masters Of Madness' 1987).wav" WAVE
TRACK 15 AUDIO
TITLE "Intro ('Masters Of Madness' 1987)"
PERFORMER "High Tension"
ISRC 000000000000
FLAGS DCP
INDEX 01 00:00:00
FILE "High Tension - Legacy (CD1) - 16 - Stiletto Heels ('Masters Of Madness' 1987).wav" WAVE
TRACK 16 AUDIO
TITLE "Stiletto Heels ('Masters Of Madness' 1987)"
PERFORMER "High Tension"
ISRC 000000000000
FLAGS DCP
INDEX 01 00:00:00
FILE "High Tension - Legacy (CD1) - 17 - Sweet Fourteen ('Masters Of Madness' 1987).wav" WAVE
TRACK 17 AUDIO
TITLE "Sweet Fourteen ('Masters Of Madness' 1987)"
PERFORMER "High Tension"
ISRC 000000000000
FLAGS DCP
INDEX 01 00:00:00
FILE "High Tension - Legacy (CD1) - 18 - Invaders From Space ('Masters Of Madness' 1987).wav" WAVE
TRACK 18 AUDIO
TITLE "Invaders From Space ('Masters Of Madness' 1987)"
PERFORMER "High Tension"
ISRC 000000000000
FLAGS DCP
INDEX 01 00:00:00
FILE "High Tension - Legacy (CD1) - 19 - The M.O.M. Fanfare ('Masters Of Madness' 1987).wav" WAVE
TRACK 19 AUDIO
TITLE "The M.O.M. Fanfare ('Masters Of Madness' 1987)"
PERFORMER "High Tension"
ISRC 000000000000
FLAGS DCP
INDEX 01 00:00:00

"CD2 Cue"
REM GENRE "Melodic Hard Rock"
REM DATE 2007
REM DISCID C60EA610
REM COMMENT "ExactAudioCopy v0.99pb5"
PERFORMER "High Tension"
TITLE "Legacy (CD2)"
FILE "High Tension - Legacy (CD2) - 01 - Warrior ('Warrior' 1985).wav" WAVE
TRACK 01 AUDIO
TITLE "Warrior ('Warrior' 1985)"
PERFORMER "High Tension"
ISRC 000000000000
FLAGS DCP
INDEX 01 00:00:00
FILE "High Tension - Legacy (CD2) - 02 - Get Ready For Love ('Warrior' 1985).wav" WAVE
TRACK 02 AUDIO
TITLE "Get Ready For Love ('Warrior' 1985)"
PERFORMER "High Tension"
ISRC 000000000000
FLAGS DCP
INDEX 01 00:00:00
FILE "High Tension - Legacy (CD2) - 03 - In Time ('Warrior' 1985).wav" WAVE
TRACK 03 AUDIO
TITLE "In Time ('Warrior' 1985)"
PERFORMER "High Tension"
ISRC 000000000000
FLAGS DCP
INDEX 01 00:00:00
FILE "High Tension - Legacy (CD2) - 04 - She Said 'Rock-N-Roll' ('Warrior' 1985).wav" WAVE
TRACK 04 AUDIO
TITLE "She Said 'Rock-N-Roll' ('Warrior' 1985)"
PERFORMER "High Tension"
ISRC 000000000000
FLAGS DCP
INDEX 01 00:00:00
FILE "High Tension - Legacy (CD2) - 05 - Man On The Run ('Warrior' 1985).wav" WAVE
TRACK 05 AUDIO
TITLE "Man On The Run ('Warrior' 1985)"
PERFORMER "High Tension"
ISRC 000000000000
FLAGS DCP
INDEX 01 00:00:00
FILE "High Tension - Legacy (CD2) - 06 - Rock City ('Warrior' 1985).wav" WAVE
TRACK 06 AUDIO
TITLE "Rock City ('Warrior' 1985)"
PERFORMER "High Tension"
ISRC 000000000000
FLAGS DCP
INDEX 01 00:00:00
FILE "High Tension - Legacy (CD2) - 07 - Summernights ('Warrior' 1985).wav" WAVE
TRACK 07 AUDIO
TITLE "Summernights ('Warrior' 1985)"
PERFORMER "High Tension"
ISRC 000000000000
FLAGS DCP
INDEX 01 00:00:00
FILE "High Tension - Legacy (CD2) - 08 - Between The Lines ('Warrior' 1985).wav" WAVE
TRACK 08 AUDIO
TITLE "Between The Lines ('Warrior' 1985)"
PERFORMER "High Tension"
ISRC 000000000000
FLAGS DCP
INDEX 01 00:00:00
FILE "High Tension - Legacy (CD2) - 09 - Neon-Lights ('Warrior' 1985).wav" WAVE
TRACK 09 AUDIO
TITLE "Neon-Lights ('Warrior' 1985)"
PERFORMER "High Tension"
ISRC 000000000000
FLAGS DCP
INDEX 01 00:00:00
FILE "High Tension - Legacy (CD2) - 10 - Unchained ('Warrior' 1985).wav" WAVE
TRACK 10 AUDIO
TITLE "Unchained ('Warrior' 1985)"
PERFORMER "High Tension"
ISRC 000000000000
FLAGS DCP
INDEX 01 00:00:00
FILE "High Tension - Legacy (CD2) - 11 - Touch Of Steel (Bonus Track).wav" WAVE
TRACK 11 AUDIO
TITLE "Touch Of Steel (Bonus Track)"
PERFORMER "High Tension"
ISRC 000000000000
FLAGS DCP
INDEX 01 00:00:00
FILE "High Tension - Legacy (CD2) - 12 - Crying Angel (Bonus Track).wav" WAVE
TRACK 12 AUDIO
TITLE "Crying Angel (Bonus Track)"
PERFORMER "High Tension"
ISRC 000000000000
FLAGS DCP
INDEX 01 00:00:00
FILE "High Tension - Legacy (CD2) - 13 - Hard Way To Go (Bonus Track).wav" WAVE
TRACK 13 AUDIO
TITLE "Hard Way To Go (Bonus Track)"
PERFORMER "High Tension"
ISRC 000000000000
FLAGS DCP
INDEX 01 00:00:00
FILE "High Tension - Legacy (CD2) - 14 - Into My Heart (Bonus Track).wav" WAVE
TRACK 14 AUDIO
TITLE "Into My Heart (Bonus Track)"
PERFORMER "High Tension"
ISRC 000000000000
FLAGS DCP
INDEX 01 00:00:00
FILE "High Tension - Legacy (CD2) - 15 - Down' Dirty (Bonus Track).wav" WAVE
TRACK 15 AUDIO
TITLE "Down' Dirty (Bonus Track)"
PERFORMER "High Tension"
ISRC 000000000000
FLAGS DCP
INDEX 01 00:00:00
FILE "High Tension - Legacy (CD2) - 16 - One Step To Paradise (Bonus Track).wav" WAVE
TRACK 16 AUDIO
TITLE "One Step To Paradise (Bonus Track)"
PERFORMER "High Tension"
ISRC 000000000000
FLAGS DCP
INDEX 01 00:00:00

"CD1 Log"
Exact Audio Copy V0.99 prebeta 5 from 4. May 2009

EAC extraction logfile from 29. April 2010, 16:12

High Tension / Legacy (CD1)

Used drive : HP DVD Writer 1070r Adapter: 1 ID: 1

Read mode : Secure
Utilize accurate stream : Yes
Defeat audio cache : Yes
Make use of C2 pointers : No

Read offset correction : 6
Overread into Lead-In and Lead-Out : No
Fill up missing offset samples with silence : Yes
Delete leading and trailing silent blocks : No
Null samples used in CRC calculations : Yes
Used interface : Native Win32 interface for Win NT & 2000
Gap handling : Appended to previous track

Used output format : Internal WAV Routines
Sample format : 44.100 Hz; 16 Bit; Stereo


TOC of the extracted CD

Track | Start | Length | Start sector | End sector
---------------------------------------------------------
1 | 0:00.00 | 5:03.08 | 0 | 22732
2 | 5:03.08 | 4:34.45 | 22733 | 43327
3 | 9:37.53 | 4:18.38 | 43328 | 62715
4 | 13:56.16 | 5:15.35 | 62716 | 86375
5 | 19:11.51 | 4:19.37 | 86376 | 105837
6 | 23:31.13 | 3:50.12 | 105838 | 123099
7 | 27:21.25 | 4:34.27 | 123100 | 143676
8 | 31:55.52 | 4:08.20 | 143677 | 162296
9 | 36:03.72 | 4:18.16 | 162297 | 181662
10 | 40:22.13 | 4:11.10 | 181663 | 200497
11 | 44:33.23 | 3:27.11 | 200498 | 216033
12 | 48:00.34 | 4:27.67 | 216034 | 236125
13 | 52:28.26 | 4:02.59 | 236126 | 254334
14 | 56:31.10 | 3:44.69 | 254335 | 271203
15 | 60:16.04 | 0:57.64 | 271204 | 275542
16 | 61:13.68 | 3:55.00 | 275543 | 293167
17 | 65:08.68 | 4:21.28 | 293168 | 312770
18 | 69:30.21 | 4:01.60 | 312771 | 330905
19 | 73:32.06 | 4:57.64 | 330906 | 353244


Track 1

Filename E:\-=EAC Files\High Tension - Legacy (CD1) - 01 - Wind Me Up ('Under Tension' 1986).wav

Pre-gap length 0:00:02.00

Peak level 76.1 %
Track quality 100.0 %
Test CRC AB61529E
Copy CRC AB61529E
Accurately ripped (confidence 1) [179269B2]
Copy OK

Track 2

Filename E:\-=EAC Files\High Tension - Legacy (CD1) - 02 - Shake Off The Hunter ('Under Tension' 1986).wav

Peak level 84.0 %
Track quality 99.9 %
Test CRC 8DA198F8
Copy CRC 8DA198F8
Accurately ripped (confidence 1) [5D414C92]
Copy OK

Track 3

Filename E:\-=EAC Files\High Tension - Legacy (CD1) - 03 - Rock-N-Roll Rebel ('Under Tension' 1986).wav

Peak level 76.8 %
Track quality 100.0 %
Test CRC 304710D1
Copy CRC 304710D1
Accurately ripped (confidence 1) [76DE2DFD]
Copy OK

Track 4

Filename E:\-=EAC Files\High Tension - Legacy (CD1) - 04 - Burning Heart ('Under Tension' 1986).wav

Peak level 74.3 %
Track quality 99.9 %
Test CRC E19717BA
Copy CRC E19717BA
Accurately ripped (confidence 1) [4F850715]
Copy OK

Track 5

Filename E:\-=EAC Files\High Tension - Legacy (CD1) - 05 - Work Hard, Die Young ('Under Tension' 1986).wav

Peak level 71.9 %
Track quality 100.0 %
Test CRC 667962BE
Copy CRC 667962BE
Accurately ripped (confidence 1) [07CE5453]
Copy OK

Track 6

Filename E:\-=EAC Files\High Tension - Legacy (CD1) - 06 - Rock Down ('Under Tension' 1986).wav

Peak level 73.7 %
Track quality 100.0 %
Test CRC AF216C35
Copy CRC AF216C35
Accurately ripped (confidence 1) [6ACBFE89]
Copy OK

Track 7

Filename E:\-=EAC Files\High Tension - Legacy (CD1) - 07 - Stay The Night ('Under Tension' 1986).wav

Peak level 69.4 %
Track quality 100.0 %
Test CRC FE0D0700
Copy CRC FE0D0700
Accurately ripped (confidence 1) [7F7D611F]
Copy OK

Track 8

Filename E:\-=EAC Files\High Tension - Legacy (CD1) - 08 - Lady ('Under Tension' 1986).wav

Peak level 73.8 %
Track quality 100.0 %
Test CRC FE581280
Copy CRC FE581280
Accurately ripped (confidence 1) [81D89877]
Copy OK

Track 9

Filename E:\-=EAC Files\High Tension - Legacy (CD1) - 09 - Hot Legs ('Under Tension' 1986).wav

Peak level 75.0 %
Track quality 100.0 %
Test CRC E5FA62A6
Copy CRC E5FA62A6
Accurately ripped (confidence 1) [9CB57280]
Copy OK

Track 10

Filename E:\-=EAC Files\High Tension - Legacy (CD1) - 10 - Hard Lies ('Masters Of Madness' 1987).wav

Peak level 61.9 %
Track quality 100.0 %
Test CRC 7201141C
Copy CRC 7201141C
Accurately ripped (confidence 1) [2DECCB5C]
Copy OK

Track 11

Filename E:\-=EAC Files\High Tension - Legacy (CD1) - 11 - Kings & Queens ('Masters Of Madness' 1987).wav

Peak level 61.5 %
Track quality 100.0 %
Test CRC 4864A33C
Copy CRC 4864A33C
Accurately ripped (confidence 1) [10E55D43]
Copy OK

Track 12

Filename E:\-=EAC Files\High Tension - Legacy (CD1) - 12 - Leather Beauty ('Masters Of Madness' 1987).wav

Peak level 58.6 %
Track quality 100.0 %
Test CRC DD3C70AE
Copy CRC DD3C70AE
Accurately ripped (confidence 1) [81BF7DCE]
Copy OK

Track 13

Filename E:\-=EAC Files\High Tension - Legacy (CD1) - 13 - Crazy World ('Masters Of Madness' 1987).wav

Peak level 56.3 %
Track quality 100.0 %
Test CRC 15869C99
Copy CRC 15869C99
Accurately ripped (confidence 1) [4808ADDD]
Copy OK

Track 14

Filename E:\-=EAC Files\High Tension - Legacy (CD1) - 14 - Eyes Of The Law ('Masters Of Madness' 1987).wav

Peak level 57.0 %
Track quality 100.0 %
Test CRC C8846D09
Copy CRC C8846D09
Accurately ripped (confidence 1) [413CCD3A]
Copy OK

Track 15

Filename E:\-=EAC Files\High Tension - Legacy (CD1) - 15 - Intro ('Masters Of Madness' 1987).wav

Peak level 60.5 %
Track quality 100.0 %
Test CRC 3004EC80
Copy CRC 3004EC80
Accurately ripped (confidence 1) [65B7640F]
Copy OK

Track 16

Filename E:\-=EAC Files\High Tension - Legacy (CD1) - 16 - Stiletto Heels ('Masters Of Madness' 1987).wav

Peak level 57.5 %
Track quality 100.0 %
Test CRC A3160909
Copy CRC A3160909
Accurately ripped (confidence 1) [4662777E]
Copy OK

Track 17

Filename E:\-=EAC Files\High Tension - Legacy (CD1) - 17 - Sweet Fourteen ('Masters Of Madness' 1987).wav

Peak level 66.0 %
Track quality 100.0 %
Test CRC 5974DD12
Copy CRC 5974DD12
Accurately ripped (confidence 1) [2518EA3A]
Copy OK

Track 18

Filename E:\-=EAC Files\High Tension - Legacy (CD1) - 18 - Invaders From Space ('Masters Of Madness' 1987).wav

Peak level 61.9 %
Track quality 100.0 %
Test CRC 292C30DF
Copy CRC 292C30DF
Accurately ripped (confidence 1) [FFA534B6]
Copy OK

Track 19

Filename E:\-=EAC Files\High Tension - Legacy (CD1) - 19 - The M.O.M. Fanfare ('Masters Of Madness' 1987).wav

Peak level 59.7 %
Track quality 99.9 %
Test CRC 013A0D66
Copy CRC 013A0D66
Accurately ripped (confidence 1) [FDD2097C]
Copy OK


All tracks accurately ripped

No errors occurred

End of status report

"CD2 Log"
Exact Audio Copy V0.99 prebeta 5 from 4. May 2009

EAC extraction logfile from 29. April 2010, 21:34

High Tension / Legacy (CD2)

Used drive : HP DVD Writer 1070r Adapter: 1 ID: 1

Read mode : Secure
Utilize accurate stream : Yes
Defeat audio cache : Yes
Make use of C2 pointers : No

Read offset correction : 6
Overread into Lead-In and Lead-Out : No
Fill up missing offset samples with silence : Yes
Delete leading and trailing silent blocks : No
Null samples used in CRC calculations : Yes
Used interface : Native Win32 interface for Win NT & 2000
Gap handling : Appended to previous track

Used output format : Internal WAV Routines
Sample format : 44.100 Hz; 16 Bit; Stereo


TOC of the extracted CD

Track | Start | Length | Start sector | End sector
---------------------------------------------------------
1 | 0:00.00 | 4:18.53 | 0 | 19402
2 | 4:18.53 | 3:15.05 | 19403 | 34032
3 | 7:33.58 | 3:22.14 | 34033 | 49196
4 | 10:55.72 | 2:47.57 | 49197 | 61778
5 | 13:43.54 | 3:49.26 | 61779 | 78979
6 | 17:33.05 | 2:50.27 | 78980 | 91756
7 | 20:23.32 | 3:12.56 | 91757 | 106212
8 | 23:36.13 | 3:55.01 | 106213 | 123838
9 | 27:31.14 | 4:27.08 | 123839 | 143871
10 | 31:58.22 | 3:33.10 | 143872 | 159856
11 | 35:31.32 | 4:32.40 | 159857 | 180296
12 | 40:03.72 | 3:48.01 | 180297 | 197397
13 | 43:51.73 | 4:41.52 | 197398 | 218524
14 | 48:33.50 | 4:51.00 | 218525 | 240349
15 | 53:24.50 | 4:26.47 | 240350 | 260346
16 | 57:51.22 | 4:39.37 | 260347 | 281308


Track 1

Filename E:\-=EAC Files\High Tension - Legacy (CD2) - 01 - Warrior ('Warrior' 1985).wav

Pre-gap length 0:00:02.00

Peak level 82.4 %
Track quality 100.0 %
Test CRC 5AC45D1C
Copy CRC 5AC45D1C
Accurately ripped (confidence 1) [1DFD7D8C]
Copy OK

Track 2

Filename E:\-=EAC Files\High Tension - Legacy (CD2) - 02 - Get Ready For Love ('Warrior' 1985).wav

Peak level 75.5 %
Track quality 100.0 %
Test CRC F488C2BE
Copy CRC F488C2BE
Accurately ripped (confidence 1) [D26E77C8]
Copy OK

Track 3

Filename E:\-=EAC Files\High Tension - Legacy (CD2) - 03 - In Time ('Warrior' 1985).wav

Peak level 74.6 %
Track quality 100.0 %
Test CRC D69B14B3
Copy CRC D69B14B3
Accurately ripped (confidence 1) [8B1A7206]
Copy OK

Track 4

Filename E:\-=EAC Files\High Tension - Legacy (CD2) - 04 - She Said 'Rock-N-Roll' ('Warrior' 1985).wav

Peak level 72.0 %
Track quality 100.0 %
Test CRC 85AF79DB
Copy CRC 85AF79DB
Accurately ripped (confidence 1) [8DAD329D]
Copy OK

Track 5

Filename E:\-=EAC Files\High Tension - Legacy (CD2) - 05 - Man On The Run ('Warrior' 1985).wav

Peak level 76.2 %
Track quality 100.0 %
Test CRC 1176E791
Copy CRC 1176E791
Accurately ripped (confidence 1) [C1534683]
Copy OK

Track 6

Filename E:\-=EAC Files\High Tension - Legacy (CD2) - 06 - Rock City ('Warrior' 1985).wav

Peak level 71.3 %
Track quality 99.9 %
Test CRC 8CAA7F67
Copy CRC 8CAA7F67
Accurately ripped (confidence 1) [A3DC1D43]
Copy OK

Track 7

Filename E:\-=EAC Files\High Tension - Legacy (CD2) - 07 - Summernights ('Warrior' 1985).wav

Peak level 71.2 %
Track quality 100.0 %
Test CRC 0EF1E821
Copy CRC 0EF1E821
Accurately ripped (confidence 1) [D7A5DAF6]
Copy OK

Track 8

Filename E:\-=EAC Files\High Tension - Legacy (CD2) - 08 - Between The Lines ('Warrior' 1985).wav

Peak level 86.7 %
Track quality 100.0 %
Test CRC 0506FBE3
Copy CRC 0506FBE3
Accurately ripped (confidence 1) [723F8115]
Copy OK

Track 9

Filename E:\-=EAC Files\High Tension - Legacy (CD2) - 09 - Neon-Lights ('Warrior' 1985).wav

Peak level 74.8 %
Track quality 100.0 %
Test CRC DF28B63E
Copy CRC DF28B63E
Accurately ripped (confidence 1) [EBC97962]
Copy OK

Track 10

Filename E:\-=EAC Files\High Tension - Legacy (CD2) - 10 - Unchained ('Warrior' 1985).wav

Peak level 77.0 %
Track quality 100.0 %
Test CRC 8B2FCE7F
Copy CRC 8B2FCE7F
Accurately ripped (confidence 1) [E2637AA5]
Copy OK

Track 11

Filename E:\-=EAC Files\High Tension - Legacy (CD2) - 11 - Touch Of Steel (Bonus Track).wav

Peak level 70.7 %
Track quality 100.0 %
Test CRC 6DE0AFA1
Copy CRC 6DE0AFA1
Accurately ripped (confidence 1) [72D779A7]
Copy OK

Track 12

Filename E:\-=EAC Files\High Tension - Legacy (CD2) - 12 - Crying Angel (Bonus Track).wav

Peak level 72.2 %
Track quality 100.0 %
Test CRC D941846F
Copy CRC D941846F
Accurately ripped (confidence 1) [4F7831D9]
Copy OK

Track 13

Filename E:\-=EAC Files\High Tension - Legacy (CD2) - 13 - Hard Way To Go (Bonus Track).wav

Peak level 76.0 %
Track quality 100.0 %
Test CRC 5D3C7505
Copy CRC 5D3C7505
Accurately ripped (confidence 1) [56EF1D7E]
Copy OK

Track 14

Filename E:\-=EAC Files\High Tension - Legacy (CD2) - 14 - Into My Heart (Bonus Track).wav

Peak level 73.4 %
Track quality 100.0 %
Test CRC 3F5487DB
Copy CRC 3F5487DB
Accurately ripped (confidence 1) [255EA43C]
Copy OK

Track 15

Filename E:\-=EAC Files\High Tension - Legacy (CD2) - 15 - Down' Dirty (Bonus Track).wav

Peak level 76.2 %
Track quality 99.9 %
Test CRC 77D9A198
Copy CRC 77D9A198
Accurately ripped (confidence 1) [A6C35924]
Copy OK

Track 16

Filename E:\-=EAC Files\High Tension - Legacy (CD2) - 16 - One Step To Paradise (Bonus Track).wav

Peak level 85.0 %
Track quality 100.0 %
Test CRC C93100DD
Copy CRC C93100DD
Accurately ripped (confidence 1) [BC6DB190]
Copy OK


All tracks accurately ripped

No errors occurred

End of status report


Disc 1

Disc 2


Top
 Profile  
 
 
PostPosted: 14 Jan 2014 
Рарник и трушник
User avatar
Joined: 25 Dec 2009
Posts: 8423
Lоcаtion: Москва
Age: 53
Name: Виталий
Scatterbrain wrote:
Впочем дурацкий кулак с шипами как раз и не нравится :pardon:

Ну а мне нравится, для 85-го самое оно то самое! :benya:
А ЛазерЛайт в 91-м - уже типа хеви-метел в песках времён потонул. Да ну, шняга самопальная, не "metal mania", как на облоге указано, а "funny-metal mania". ;)
thorbeorn
Спасибо за рипы! :thanx:


Top
 Profile  
 
 
PostPosted: 14 Jan 2014 
Рарник и трушник
User avatar
Joined: 25 Dec 2009
Posts: 8423
Lоcаtion: Москва
Age: 53
Name: Виталий
Scatterbrain wrote:
А мне все 4 нравятся. Даже с Иванушкой :true:

А Стефан с Картаги не стал их переиздавать, отдал мексиканцам, говорил, что Тирант ему не нравится вообще. :umnik:
А Иванушка - это кто? :umnik:


Top
 Profile  
 
Display posts from previous:  Sort by  
Post new topic Reply to topic  [ 32 posts ]  Go to page 1, 2  Next

All times are UTC + 3 hours


Who is online

Users browsing this forum: No registered users and 1 guest


You cannot post new topics in this forum
You cannot reply to topics in this forum
You cannot edit your posts in this forum
You cannot delete your posts in this forum
You cannot post attachments in this forum

Search for:
Яндекс.Метрика
Powered by phpBB © 2000, 2002, 2005, 2007 phpBB Group