\m/ 80's metal \m/

Информационно-аналитический форум "80 см пыли" (In Search We Trust) "У нас никто никуда не спешит"
Железнодорожная биржа - RailAgent
It is currently 18 Jul 2018

All times are UTC + 3 hours

Spoiler
Chat - temporary registration for foreign users (please leave your application here)







Post new topic Reply to topic  [ 9 posts ] 
Author Message
 
PostPosted: 12 May 2013 
Работнечег
User avatar
Joined: 28 Aug 2007
Posts: 5379
Lоcаtion: г. Москва
Age: 29
Name: Дима
Image

Band: Headless Cross
Album: Burning Sanctuary EP
Label: Self-Released
Genre: Thrash Metal
Country: UK
Format: Flac + Log + Cue + Covers
Size: 186 Mb

Line-Up:
Dave Silver - Vocals, Guitars
Andy "Bear" Stone - Bass
Kyle Daniel - Drums
Jack Wilks - Guitars


Tracklist:
1. Elysium 03:40
2. Circle of Madness 04:48
3. Testament of the Deceiver 03:18
4. Blinding Sorrow 04:48
5. Burning Sanctuary 06:40

LOG
Exact Audio Copy V0.99 prebeta 5 from 4. May 2009

EAC extraction logfile from 7. May 2013, 19:43

Headless Cross / Burning Sanctuary EP

Used drive : PIONEER DVD-RW DVR-116D Adapter: 0 ID: 0

Read mode : Secure
Utilize accurate stream : Yes
Defeat audio cache : Yes
Make use of C2 pointers : No

Read offset correction : 96
Overread into Lead-In and Lead-Out : No
Fill up missing offset samples with silence : Yes
Delete leading and trailing silent blocks : No
Null samples used in CRC calculations : Yes
Used interface : Native Win32 interface for Win NT & 2000

Used output format : User Defined Encoder
Selected bitrate : 32 kBit/s
Quality : High
Add ID3 tag : No
Command line compressor : C:\Program Files\Exact Audio Copy\Flac\flac.exe
Additional command line options : -6 -V %s


TOC of the extracted CD

Track | Start | Length | Start sector | End sector
---------------------------------------------------------
1 | 0:00.00 | 3:42.58 | 0 | 16707
2 | 3:42.58 | 4:40.62 | 16708 | 37769
3 | 8:23.45 | 3:21.09 | 37770 | 52853
4 | 11:44.54 | 4:29.36 | 52854 | 73064
5 | 16:14.15 | 6:41.64 | 73065 | 103203


Range status and errors

Selected range

Filename D:\Музыка\Lossless\Headless Cross - Burning Sanctuary EP (2005)\Headless Cross - Burning Sanctuary EP.wav

Peak level 100.0 %
Range quality 99.9 %
Copy CRC BCB68B14
Copy OK

No errors occurred


AccurateRip summary

Track 1 accurately ripped (confidence 1) [B28A4BC5]
Track 2 accurately ripped (confidence 1) [EB476167]
Track 3 accurately ripped (confidence 1) [B79D2815]
Track 4 accurately ripped (confidence 1) [A8863A44]
Track 5 accurately ripped (confidence 1) [6C50042A]

All tracks accurately ripped

End of status report

CUE
REM GENRE "Heavy/Thrash Metal"
REM DATE 2005
REM DISCID 37056005
REM COMMENT "ExactAudioCopy v0.99pb5"
PERFORMER "Headless Cross"
TITLE "Burning Sanctuary EP"
FILE "Headless Cross - Burning Sanctuary EP.flac" WAVE
TRACK 01 AUDIO
TITLE "Elysium"
PERFORMER "Headless Cross"
FLAGS DCP
INDEX 01 00:00:00
TRACK 02 AUDIO
TITLE "Circle Of Madness"
PERFORMER "Headless Cross"
FLAGS DCP
INDEX 00 03:40:58
INDEX 01 03:42:58
TRACK 03 AUDIO
TITLE "Testament Of The Deceiver"
PERFORMER "Headless Cross"
FLAGS DCP
INDEX 00 08:21:45
INDEX 01 08:23:45
TRACK 04 AUDIO
TITLE "Blinding Sorrow"
PERFORMER "Headless Cross"
FLAGS DCP
INDEX 00 11:42:54
INDEX 01 11:44:54
TRACK 05 AUDIO
TITLE "Burning Sanctuary"
PERFORMER "Headless Cross"
FLAGS DCP
INDEX 00 16:12:15
INDEX 01 16:14:15

Spectrum
Image


phpBB [youtube]

phpBB [youtube]


Rusfolder


Стоит отметить красивую балладу Blinding Sorrow и Burning Sanctuary. Может пригодится кому-нибудь :fingal:


Top
 Profile E-mail  
 
 
PostPosted: 13 May 2013 
ТрэшЭрос
User avatar
Joined: 18 Jul 2011
Posts: 2296
Lоcаtion: Гулькевичи
Age: 43
Name: Александр
Димон, :thanx:
Не слыхал таких хлопцев...

_________________
Thrash no trash!!!


Top
 Profile E-mail  
 
 
PostPosted: 13 May 2013 
Генеральный thrasher
User avatar
Joined: 03 Oct 2008
Posts: 3405
Lоcаtion: Ханты-Мансийский АО
Age: 43
Name: Сергей
Спасибо,Дим!Не знаю таких...


Top
 Profile  
 
 
PostPosted: 13 May 2013 
ТрэшЭрос
User avatar
Joined: 18 Jul 2011
Posts: 2296
Lоcаtion: Гулькевичи
Age: 43
Name: Александр
church wrote:
3. Testament of the Deceiver 03:18

Вставило неподэЦЦки! :true: Мустэйн?

_________________
Thrash no trash!!!


Top
 Profile E-mail  
 
 
PostPosted: 14 May 2013 
Хиппей (support team)
User avatar
Joined: 30 Jul 2007
Posts: 105067
Lоcаtion: Киев (Kyiv, UA)
Age: 45
Name: Andrey
:thanx:

mirror: F-Bit l Narod

_________________


Top
 Profile E-mail  
 
 
PostPosted: 14 May 2013 
Хиппей (support team)
User avatar
Joined: 30 Jul 2007
Posts: 105067
Lоcаtion: Киев (Kyiv, UA)
Age: 45
Name: Andrey
Хороший техничный трэшак под олдскул, правда с модерновый саундом.
Заимстоваваний избежать не удалось, но, по ходу этот миник является или приколом или данью.
Первый трэк начался очень бодро, по-Пантеровски, а вот дальше 4 трэка в духе Testament и вокал вроде трушный чисто трэшэвый, но иногда над Мастэйном кочевряжица :crazy:

5/10

Почему-то 10-12 раз прослушать альбом хватило. Дальше уморился :vic:

зы. Баллада нэ прыгодыласъ. Типичная она. Да и не зацепила вообще :pardon: А вот акустические проигрыши почти в каждом трэке порадовали :meloman:

_________________


Top
 Profile E-mail  
 
 
PostPosted: 14 May 2013 
Хиппей (support team)
User avatar
Joined: 30 Jul 2007
Posts: 105067
Lоcаtion: Киев (Kyiv, UA)
Age: 45
Name: Andrey
Все же забрал баллалдку - расслушал =) :meloman:

phpBB [youtube]

_________________


Top
 Profile E-mail  
 
 
PostPosted: 14 May 2013 
HAMMER
User avatar
Joined: 16 May 2009
Posts: 5325
Lоcаtion: Тверь
Age: 45
Name: Александр
Все же забрал баллалдку - расслушал =) :meloman:

phpBB [youtube]




phpBB [youtube]


Показалось? :vic:


Top
 Profile E-mail  
 
 
PostPosted: 14 May 2013 
Хиппей (support team)
User avatar
Joined: 30 Jul 2007
Posts: 105067
Lоcаtion: Киев (Kyiv, UA)
Age: 45
Name: Andrey
Ну заимствование есть, угу.

_________________


Top
 Profile E-mail  
 
Display posts from previous:  Sort by  
Post new topic Reply to topic  [ 9 posts ] 

All times are UTC + 3 hours


Who is online

Users browsing this forum: No registered users and 4 guests


You cannot post new topics in this forum
You cannot reply to topics in this forum
You cannot edit your posts in this forum
You cannot delete your posts in this forum
You cannot post attachments in this forum

Search for:
Яндекс.Метрика
cron
Powered by phpBB © 2000, 2002, 2005, 2007 phpBB Group