\m/ 80's metal \m/

Информационно-аналитический форум "80 см пыли" (In Search We Trust) "У нас никто никуда не спешит"
Железнодорожная биржа - RailAgent
It is currently 20 Jul 2018

All times are UTC + 3 hours

Spoiler
Chat - temporary registration for foreign users (please leave your application here)







Post new topic Reply to topic  [ 4 posts ] 
Author Message
 
PostPosted: 21 Apr 2013 
Работнечег
User avatar
Joined: 28 Aug 2007
Posts: 5383
Lоcаtion: г. Москва
Age: 29
Name: Дима
Image

Band: Headstone
Album: Without the Slightest Qualm
Label: Self-Released
Genre: Heavy Metal
Country: Germany
Format: Flac + Log + Cue + Covers
Size: 323 Mb

Line-Up:
Tim Benz - Vocals
Martin Grimm - Guitars
Jürgen Steinmetz - Bass
Frank Reinert - Drums


Tracklist:
1. The Announcement of Evil 00:54
2. Redeemer 04:21
3. Jesus Loves His Children 02:52
4. Martyrdom 06:43
5. Hallucinations 05:34
6. Exitus 02:46
7. Strength of Mind 04:51
8. I Can See 06:41
9. Isn't It Right 04:27
10. Coronation 02:29
11. Care 05:52

LOG
Exact Audio Copy V0.99 prebeta 5 from 4. May 2009

EAC extraction logfile from 7. April 2013, 16:36

Headstone / Without The Slightest Qualm

Used drive : PIONEER DVD-RW DVR-116D Adapter: 0 ID: 0

Read mode : Secure
Utilize accurate stream : Yes
Defeat audio cache : Yes
Make use of C2 pointers : No

Read offset correction : 96
Overread into Lead-In and Lead-Out : No
Fill up missing offset samples with silence : Yes
Delete leading and trailing silent blocks : No
Null samples used in CRC calculations : Yes
Used interface : Native Win32 interface for Win NT & 2000

Used output format : User Defined Encoder
Selected bitrate : 32 kBit/s
Quality : High
Add ID3 tag : No
Command line compressor : C:\Program Files\Exact Audio Copy\Flac\flac.exe
Additional command line options : -6 -V %s


TOC of the extracted CD

Track | Start | Length | Start sector | End sector
---------------------------------------------------------
1 | 0:00.00 | 0:54.30 | 0 | 4079
2 | 0:54.30 | 4:21.35 | 4080 | 23689
3 | 5:15.65 | 2:52.67 | 23690 | 36656
4 | 8:08.57 | 6:43.63 | 36657 | 66944
5 | 14:52.45 | 5:34.15 | 66945 | 92009
6 | 20:26.60 | 2:46.02 | 92010 | 104461
7 | 23:12.62 | 4:51.38 | 104462 | 126324
8 | 28:04.25 | 6:41.40 | 126325 | 156439
9 | 34:45.65 | 4:27.52 | 156440 | 176516
10 | 39:13.42 | 2:29.43 | 176517 | 187734
11 | 41:43.10 | 5:52.12 | 187735 | 214146


Range status and errors

Selected range

Filename D:\Музыка\Lossless\Headstone - Without The Slightest Qualm (1996) FLAC\Headstone - Without The Slightest Qualm.wav

Peak level 100.0 %
Range quality 99.8 %
Copy CRC 22F87586
Copy finished


AccurateRip summary

Track 1 accurately ripped (confidence 1) [7E6CC2DA]
Track 2 accurately ripped (confidence 1) [FB3C03D4]
Track 3 accurately ripped (confidence 1) [193BBC79]
Track 4 accurately ripped (confidence 1) [1D159110]
Track 5 accurately ripped (confidence 1) [D052C289]
Track 6 accurately ripped (confidence 1) [E4203745]
Track 7 accurately ripped (confidence 1) [9BD66F3E]
Track 8 accurately ripped (confidence 1) [658E60E0]
Track 9 accurately ripped (confidence 1) [9E3291D3]
Track 10 accurately ripped (confidence 1) [E8869203]
Track 11 accurately ripped (confidence 1) [6654EA6C]

11 track(s) accurately ripped

End of status report

CUE
REM GENRE "Heavy Metal"
REM DATE 1996
REM DISCID 990B270B
REM COMMENT "ExactAudioCopy v0.99pb5"
PERFORMER "Headstone"
TITLE "Without The Slightest Qualm"
FILE "Headstone - Without The Slightest Qualm.flac" WAVE
TRACK 01 AUDIO
TITLE "The Announcement Of Evil"
PERFORMER "Headstone"
INDEX 01 00:00:00
TRACK 02 AUDIO
TITLE "Redeemer"
PERFORMER "Headstone"
INDEX 01 00:54:30
TRACK 03 AUDIO
TITLE "Jesus Loves His Children"
PERFORMER "Headstone"
INDEX 00 05:14:12
INDEX 01 05:15:65
TRACK 04 AUDIO
TITLE "Martyrdom"
PERFORMER "Headstone"
INDEX 00 08:05:22
INDEX 01 08:08:57
TRACK 05 AUDIO
TITLE "Hallucinations"
PERFORMER "Headstone"
INDEX 00 14:48:57
INDEX 01 14:52:45
TRACK 06 AUDIO
TITLE "Exitus"
PERFORMER "Headstone"
INDEX 01 20:26:60
TRACK 07 AUDIO
TITLE "Strength Of Mind"
PERFORMER "Headstone"
INDEX 00 23:08:20
INDEX 01 23:12:62
TRACK 08 AUDIO
TITLE "I Can See"
PERFORMER "Headstone"
INDEX 00 28:00:67
INDEX 01 28:04:25
TRACK 09 AUDIO
TITLE "Isn't It Right"
PERFORMER "Headstone"
INDEX 00 34:44:34
INDEX 01 34:45:65
TRACK 10 AUDIO
TITLE "Coronation"
PERFORMER "Headstone"
INDEX 01 39:13:42
TRACK 11 AUDIO
TITLE "Care"
PERFORMER "Headstone"
INDEX 00 41:41:55
INDEX 01 41:43:10


F-Bit

На удивление понравился альбом :true:


Top
 Profile E-mail  
 
 
PostPosted: 22 Apr 2013 
Хиппей (support team)
User avatar
Joined: 30 Jul 2007
Posts: 105153
Lоcаtion: Киев (Kyiv, UA)
Age: 45
Name: Andrey
:thanx:

mirror: F-Bit l Narod

_________________


Top
 Profile E-mail  
 
 
PostPosted: 22 Apr 2013 
Power Metal Maniac
User avatar
Joined: 09 Aug 2008
Posts: 6197
Lоcаtion: Москва
Age: 40
Name: Егор
Давно хотел его)) :thanx:

_________________
Long Live Metal!


Top
 Profile  
 
 
PostPosted: 03 May 2013 
Alive Again
User avatar
Joined: 17 Dec 2008
Posts: 4570
Lоcаtion: Курск Воронеж Оскол
Age: 43
Name: Дмитрий
:thanx:


Top
 Profile E-mail  
 
Display posts from previous:  Sort by  
Post new topic Reply to topic  [ 4 posts ] 

All times are UTC + 3 hours


Who is online

Users browsing this forum: No registered users and 3 guests


You cannot post new topics in this forum
You cannot reply to topics in this forum
You cannot edit your posts in this forum
You cannot delete your posts in this forum
You cannot post attachments in this forum

Search for:
Яндекс.Метрика
Powered by phpBB © 2000, 2002, 2005, 2007 phpBB Group