\m/ 80's metal \m/

Информационно-аналитический форум "80 см пыли" (In Search We Trust) "У нас никто никуда не спешит"
Me For You - http://me-4u.com
It is currently 21 Nov 2018

All times are UTC + 3 hours

Spoiler
Chat - temporary registration for foreign users (please leave your application here)







Post new topic Reply to topic  [ 12 posts ] 
Author Message
 
PostPosted: 18 Mar 2012 
Работнечег
User avatar
Joined: 28 Aug 2007
Posts: 5557
Lоcаtion: г. Москва
Age: 29
Name: Дима
Image

Band: Heavenward
Album: Within These Dreams
Label: D & S Recording
Genre: Power Metal
Country: Germany
Format: Flac + Log + Cue + Covers
Size: 309 Mb

Line-Up:
Stefan Kebel - Vocals
Achim Schneider - Lead Guitar, Rhytm Guitar, Acoustic 12-string Guitar
Oliver Muller - Bass
Bernd Groters - Additional Lead Guitar
Thomas Kelleners - Drums

Special Guest:
Thomas Rasche - Keyboards

Tracklist:
1. The Sky
2. Dreams In Disguise
3. Cold Embrace
4. Their Eyes
5. At First Nature
6. Raging Waters
7. Within These Walls
8. Holding The Key

LOG
Exact Audio Copy V0.99 prebeta 5 from 4. May 2009

EAC extraction logfile from 17. March 2012, 14:38

Heavenward / Within These Dreams

Used drive : PIONEER DVD-RW DVR-116D Adapter: 0 ID: 0

Read mode : Secure
Utilize accurate stream : Yes
Defeat audio cache : Yes
Make use of C2 pointers : No

Read offset correction : 96
Overread into Lead-In and Lead-Out : No
Fill up missing offset samples with silence : Yes
Delete leading and trailing silent blocks : No
Null samples used in CRC calculations : Yes
Used interface : Native Win32 interface for Win NT & 2000

Used output format : User Defined Encoder
Selected bitrate : 32 kBit/s
Quality : High
Add ID3 tag : No
Command line compressor : C:\Program Files\Exact Audio Copy\Flac\flac.exe
Additional command line options : -6 -V %s


TOC of the extracted CD

Track | Start | Length | Start sector | End sector
---------------------------------------------------------
1 | 0:00.00 | 5:32.25 | 0 | 24924
2 | 5:32.25 | 5:20.07 | 24925 | 48931
3 | 10:52.32 | 4:33.08 | 48932 | 69414
4 | 15:25.40 | 6:18.20 | 69415 | 97784
5 | 21:43.60 | 5:56.52 | 97785 | 124536
6 | 27:40.37 | 7:16.70 | 124537 | 157306
7 | 34:57.32 | 4:44.73 | 157307 | 178679
8 | 39:42.30 | 2:59.45 | 178680 | 192149


Range status and errors

Selected range

Filename D:\Музыка\Lossless\Heavenward - Within These Dreams (1991)\Heavenward - Within These Dreams.wav

Peak level 98.1 %
Range quality 100.0 %
Copy CRC 7A1FB58B
Copy OK

No errors occurred


AccurateRip summary

Track 1 accurately ripped (confidence 1) [3C245C8C]
Track 2 accurately ripped (confidence 1) [3C13E47B]
Track 3 accurately ripped (confidence 1) [5BD9D004]
Track 4 accurately ripped (confidence 1) [A356631B]
Track 5 accurately ripped (confidence 1) [67558A6E]
Track 6 accurately ripped (confidence 1) [17517355]
Track 7 accurately ripped (confidence 1) [6AD25B00]
Track 8 accurately ripped (confidence 1) [47EE4646]

All tracks accurately ripped

End of status report

CUE
REM GENRE "Power Metal"
REM DATE 1991
REM DISCID 6A0A0208
REM COMMENT "ExactAudioCopy v0.99pb5"
PERFORMER "Heavenward"
TITLE "Within These Dreams"
FILE "Heavenward - Within These Dreams.flac" WAVE
TRACK 01 AUDIO
TITLE "The Sky"
PERFORMER "Heavenward"
INDEX 01 00:00:00
TRACK 02 AUDIO
TITLE "Dreams In Disguise"
PERFORMER "Heavenward"
INDEX 00 05:30:60
INDEX 01 05:32:25
TRACK 03 AUDIO
TITLE "Cold Embrace"
PERFORMER "Heavenward"
INDEX 00 10:50:57
INDEX 01 10:52:32
TRACK 04 AUDIO
TITLE "Their Eyes"
PERFORMER "Heavenward"
INDEX 00 15:25:10
INDEX 01 15:25:40
TRACK 05 AUDIO
TITLE "At First Nature"
PERFORMER "Heavenward"
INDEX 00 21:41:65
INDEX 01 21:43:60
TRACK 06 AUDIO
TITLE "Raging Waters"
PERFORMER "Heavenward"
INDEX 00 27:38:09
INDEX 01 27:40:37
TRACK 07 AUDIO
TITLE "Within These Walls"
PERFORMER "Heavenward"
INDEX 00 34:56:37
INDEX 01 34:57:32
TRACK 08 AUDIO
TITLE "Holding The Key"
PERFORMER "Heavenward"
INDEX 00 39:41:20
INDEX 01 39:42:30

Spectrum
Image


Narod.Ru

Отличный альбомец! Сканы ток у меня буклета малость кривоватые получились, постараюсь переделать :fingal:


Top
 Profile E-mail  
 
 
PostPosted: 18 Mar 2012 
Генеральный thrasher
User avatar
Joined: 03 Oct 2008
Posts: 3510
Lоcаtion: Ханты-Мансийский АО
Age: 43
Name: Сергей
Спасибо,Дим! :true:


Top
 Profile  
 
 
PostPosted: 18 Mar 2012 
спирт 100%
User avatar
Joined: 22 Sep 2008
Posts: 4314
Age: 47
Name: Саня
Спасибо, Димон! :true:


Top
 Profile  
 
 
PostPosted: 18 Mar 2012 
ТрэшЭрос
User avatar
Joined: 18 Jul 2011
Posts: 2300
Lоcаtion: Гулькевичи
Age: 43
Name: Александр
Heavenward - Raging Waters
[youtube]yEcm6pONLg0&feature=related[/youtube]

_________________
Thrash no trash!!!


Top
 Profile E-mail  
 
 
PostPosted: 18 Mar 2012 
Прокъмитолист
User avatar
Joined: 12 Aug 2007
Posts: 6504
Lоcаtion: Санктъ-Петербуркъ
Age: 51
Name: Олекъ
берем. спасибо, Димка! :thanx: :true:

_________________
прокъметол - это музыко, от которово есть прок (ы)


Top
 Profile  
 
 
PostPosted: 18 Mar 2012 
Хиппей (support team)
User avatar
Joined: 30 Jul 2007
Posts: 108245
Lоcаtion: Киев (Kyiv, UA)
Age: 45
Name: Andrey
:thanx:

_________________


Top
 Profile E-mail  
 
 
PostPosted: 18 Mar 2012 
Работнечег
User avatar
Joined: 28 Aug 2007
Posts: 5557
Lоcаtion: г. Москва
Age: 29
Name: Дима
Пересканировал 3 странички из буклета, забирайте отсюда


Top
 Profile E-mail  
 
 
PostPosted: 18 Mar 2012 
Power Metal Maniac
User avatar
Joined: 09 Aug 2008
Posts: 6372
Lоcаtion: Москва
Age: 40
Name: Егор
:thanx:

_________________
Long Live Metal!


Top
 Profile  
 
 
PostPosted: 18 Mar 2012 
Хиппей (support team)
User avatar
Joined: 30 Jul 2007
Posts: 108245
Lоcаtion: Киев (Kyiv, UA)
Age: 45
Name: Andrey
church wrote:
Пересканировал 3 странички из буклета, забирайте

Спасибо, Димка :thanx:
Остальные ждать?
А то хочу попозже перелить всё в одном флаконе... :oops:

_________________


Top
 Profile E-mail  
 
 
PostPosted: 19 Mar 2012 
Работнечег
User avatar
Joined: 28 Aug 2007
Posts: 5557
Lоcаtion: г. Москва
Age: 29
Name: Дима
Scatterbrain wrote:
church wrote:
Пересканировал 3 странички из буклета, забирайте

Спасибо, Димка :thanx:
Остальные ждать?
А то хочу попозже перелить всё в одном флаконе... :oops:

В смысле остальные сканы? так они нормальные, проблема токо в этих трех была.


Top
 Profile E-mail  
 
 
PostPosted: 27 Mar 2012 
Хиппей (support team)
User avatar
Joined: 30 Jul 2007
Posts: 108245
Lоcаtion: Киев (Kyiv, UA)
Age: 45
Name: Andrey
Ага, ок. Спасибо
Перелил :dance:

mirror: Speedy l Narod

_________________


Top
 Profile E-mail  
 
 
PostPosted: 28 Mar 2012 
Хиппей (support team)
User avatar
Joined: 30 Jul 2007
Posts: 108245
Lоcаtion: Киев (Kyiv, UA)
Age: 45
Name: Andrey
Пару дней гонял альбом туда-сюда. Ну не прёть и всё тут. Шото всё мне не так и не то :nea:
Сегодня дошло - это неудачная попытка сыграть по-новой дебютник от Crimson Glory.
Вокал - фуфло. Инструменталисты хороши, но в них нет души. Вернее, есть, но она как-то распалась на атомы и отдельные риффы :(
Единственное светлое бельмо альбома - последний короткий трэк :meloman:

4/10

_________________


Top
 Profile E-mail  
 
Display posts from previous:  Sort by  
Post new topic Reply to topic  [ 12 posts ] 

All times are UTC + 3 hours


Who is online

Users browsing this forum: No registered users and 1 guest


You cannot post new topics in this forum
You cannot reply to topics in this forum
You cannot edit your posts in this forum
You cannot delete your posts in this forum
You cannot post attachments in this forum

Search for:
Яндекс.Метрика
Powered by phpBB © 2000, 2002, 2005, 2007 phpBB Group