\m/ 80's metal \m/

Информационно-аналитический форум "80 см пыли" (In Search We Trust) "У нас никто никуда не спешит"
Железнодорожная биржа - RailAgent
It is currently 17 Aug 2018

All times are UTC + 3 hours

Spoiler
Chat - temporary registration for foreign users (please leave your application here)







Post new topic Reply to topic  [ 1 post ] 
Author Message
 
PostPosted: 12 Dec 2011 
Хиппей (support team)
User avatar
Joined: 30 Jul 2007
Posts: 105647
Lоcаtion: Киев (Kyiv, UA)
Age: 45
Name: Andrey
Heavy Load - 1982 - Death Or Glory (reissued 1996) [ape]

Attachment:
cover.jpg
cover.jpg [ 3.34 MiB | Viewed 127 times ]

Attachment:
back.jpg
back.jpg [ 2.25 MiB | Viewed 133 times ]


Genre: Heavy Metal/NWOSHM
Location: Sweden
Format: ape+cue+log+scans
Size: 340 Mb


Line-up:

Styrbjörn Wahlquist - Vocals, Drums
Ragne Wahlquist - Vocals, Guitars, Keyboards
Torbjörn Ragnesjo - Bass
Eddy Malm - Guitars

    1. Heavy Metal Angels (In Metal And Leather) - 04:03
    2. Might For Right - 03:25
    3. Something New - 04:30
    4. Bleeding Streets - 03:45
    5. The Guitar Is My Sword - 04:30
    6. Take Me Away - 04:21
    7. Trespasser - 03:54
    8. Still There Is Time - 04:26
    9. Traveller - 05:15
    10. Little Lies - 04:31
    11. Daybreak Ecstacy - 05:09

    TPT: 47:19

Очень понравился альбом :meloman:
Самое смешное, что это NWOBHM чистый, но... вокалист поёт в манере британского New Wave/Goth Rock начала 80-х :crazy:

Пример http://www.youtube.com/watch?v=Xbt30UnzRWw или http://www.youtube.com/watch?v=KCjMZMxNr-0

Хит номер один на диске:

phpBB [youtube]


8/10

MultiUp l Narod

log
Exact Audio Copy V0.99 prebeta 5 from 4. May 2009

EAC extraction logfile from 28. June 2011, 19:49

HEAVY LOAD / DEATH OR GLORY

Used drive : PIONEER DVD-RW DVR-219L Adapter: 2 ID: 0

Read mode : Secure
Utilize accurate stream : Yes
Defeat audio cache : Yes
Make use of C2 pointers : No

Read offset correction : 6
Overread into Lead-In and Lead-Out : No
Fill up missing offset samples with silence : Yes
Delete leading and trailing silent blocks : No
Null samples used in CRC calculations : Yes
Used interface : Native Win32 interface for Win NT & 2000

Used output format : Monkey's Audio Lossless Encoder
Selected bitrate : High Lossless Compression
Quality : High
Add ID3 tag : Yes
Command line compressor : C:\Programmi\Exact Audio Copy\MAC.EXE


TOC of the extracted CD

Track | Start | Length | Start sector | End sector
---------------------------------------------------------
1 | 0:00.00 | 4:01.37 | 0 | 18111
2 | 4:01.37 | 3:21.40 | 18112 | 33226
3 | 7:23.02 | 4:26.40 | 33227 | 53216
4 | 11:49.42 | 3:41.25 | 53217 | 69816
5 | 15:30.67 | 4:26.53 | 69817 | 89819
6 | 19:57.45 | 4:21.32 | 89820 | 109426
7 | 24:19.02 | 3:50.30 | 109427 | 126706
8 | 28:09.32 | 4:22.55 | 126707 | 146411
9 | 32:32.12 | 5:11.50 | 146412 | 169786
10 | 37:43.62 | 4:27.70 | 169787 | 189881
11 | 42:11.57 | 5:07.35 | 189882 | 212941


Range status and errors

Selected range

Filename C:\Documents and Settings\oem\Documenti\HEAVY LOAD - DEATH OR GLORY\HEAVY LOAD - DEATH OR GLORY.wav

Peak level 100.0 %
Range quality 100.0 %
Copy CRC 00BE85EB
Copy OK

No errors occurred


AccurateRip summary

Track 1 cannot be verified as accurate (confidence 2) [64F4CB17], AccurateRip returned [EBC4794E]
Track 2 cannot be verified as accurate (confidence 2) [6325E773], AccurateRip returned [1E00FE4B]
Track 3 cannot be verified as accurate (confidence 2) [F8ABA085], AccurateRip returned [AED505F8]
Track 4 cannot be verified as accurate (confidence 2) [256A26F4], AccurateRip returned [5770932F]
Track 5 cannot be verified as accurate (confidence 2) [A1864525], AccurateRip returned [4B68A334]
Track 6 cannot be verified as accurate (confidence 2) [4DDC9CC0], AccurateRip returned [913704F4]
Track 7 cannot be verified as accurate (confidence 2) [D1774D99], AccurateRip returned [04372692]
Track 8 cannot be verified as accurate (confidence 2) [C40F83B6], AccurateRip returned [8E3DF36B]
Track 9 cannot be verified as accurate (confidence 2) [72F6C470], AccurateRip returned [EF8487A1]
Track 10 cannot be verified as accurate (confidence 2) [C28D7B15], AccurateRip returned [053DA816]
Track 11 cannot be verified as accurate (confidence 2) [ED31FBF1], AccurateRip returned [48361B8D]

No tracks could be verified as accurate
You may have a different pressing from the one(s) in the database

End of status report


cue
REM GENRE "Heavy Metal"
REM DATE 1993
REM DISCID 8F0B170B
REM COMMENT "ExactAudioCopy v0.99pb5"
PERFORMER "HEAVY LOAD"
TITLE "DEATH OR GLORY"
FILE "HEAVY LOAD - DEATH OR GLORY.ape" WAVE
TRACK 01 AUDIO
TITLE "Heavy Metal Angels"
PERFORMER "HEAVY LOAD"
INDEX 01 00:00:00
TRACK 02 AUDIO
TITLE "Might For Right"
PERFORMER "HEAVY LOAD"
INDEX 01 04:01:37
TRACK 03 AUDIO
TITLE "Something New"
PERFORMER "HEAVY LOAD"
INDEX 01 07:23:02
TRACK 04 AUDIO
TITLE "Bleeding Streets"
PERFORMER "HEAVY LOAD"
INDEX 01 11:49:42
TRACK 05 AUDIO
TITLE "The Guitar Is My Sword"
PERFORMER "HEAVY LOAD"
INDEX 01 15:30:67
TRACK 06 AUDIO
TITLE "Take Me Away"
PERFORMER "HEAVY LOAD"
INDEX 01 19:57:45
TRACK 07 AUDIO
TITLE "Trespasser"
PERFORMER "HEAVY LOAD"
INDEX 01 24:19:02
TRACK 08 AUDIO
TITLE "Still There Is Time"
PERFORMER "HEAVY LOAD"
INDEX 01 28:09:32
TRACK 09 AUDIO
TITLE "Traveller"
PERFORMER "HEAVY LOAD"
INDEX 01 32:32:12
TRACK 10 AUDIO
TITLE "Little Lies"
PERFORMER "HEAVY LOAD"
INDEX 01 37:43:62
TRACK 11 AUDIO
TITLE "Daybreak Ecstasy"
PERFORMER "HEAVY LOAD"
INDEX 01 42:11:57


spectrum
Attachment:
spectrum.jpg
spectrum.jpg [ 355.39 KiB | Viewed 113 times ]


Спасибо автору рипа за... за то, что он автор :thanx: К сожалению (или счастью, забыл, кто такой oem :vic: )

upd. Вспомнил - rockberto :dance:

_________________


Top
 Profile E-mail  
 
Display posts from previous:  Sort by  
Post new topic Reply to topic  [ 1 post ] 

All times are UTC + 3 hours


Who is online

Users browsing this forum: No registered users and 1 guest


You cannot post new topics in this forum
You cannot reply to topics in this forum
You cannot edit your posts in this forum
You cannot delete your posts in this forum
You cannot post attachments in this forum

Search for:
Яндекс.Метрика
Powered by phpBB © 2000, 2002, 2005, 2007 phpBB Group