\m/ 80's metal \m/

Информационно-аналитический форум "80 см пыли" (In Search We Trust) "У нас никто никуда не спешит"
Железнодорожная биржа - RailAgent
It is currently 19 Jul 2018

All times are UTC + 3 hours

Spoiler
Chat - temporary registration for foreign users (please leave your application here)







Post new topic Reply to topic  [ 7 posts ] 
Author Message
 
PostPosted: 30 Nov 2011 
труъ антисионист
User avatar
Joined: 01 Aug 2007
Posts: 4541
Lоcаtion: Откуда и большинство из нас
Age: 37
Name: Дядя Вова
Image
Группа: Holocaust
Альбом: The Courage To Be
Год: 2000
Стиль: Heavy Metal
Страна: UK
Формат: APE
Размер: 355 Mb

******************************************************************************

Line Up:

John Mortimer - vocals & guitar
Iain McKenzie - guitar
Graham Cowen - bass
Steve Cowen - drums


Tracks:
1. The Collective 07:42
2. A Gentleman's Penny-Farthing 01:55
3. Neurosis 08:31
4. When Penelope Dreams Pt. 1 04:09
5. When Penelope Dreams Pt. 2 03:04
6. From the Mine Shaft to the Bike Shed 03:41
7. Fundamentalist 05:42
8. Spanner Omlette 04:52
9. Home from Home 06:36
10. The Age of Reason 05:21



LOG
Отчёт EAC об извлечении, выполненном 29. июля 2009, 12:58 для диска:
Holocaust / The Courage To Be

Дисковод: ASUS DRW-2014S1 Adapter: 0 ID: 0
Режим чтения: Достоверный (C2: нет, Точный поток: да, Отключение кэша: да)
Коррекция смещения при чтении: 6
Способность читать области Lead-in и Lead-out : Нет

Выходной формат: Внутренние WAV-операции
44.100 Гц; 16 бит; стерео

Другие параметры:
Заполнение пропущенных сэмплов тишиной : Да
Удаление блоков с тишиной в начале и конце : Нет
Установленный внешний ASPI-интерфейс


Характеристики диапазона извлечения и сообщения об ошибках
Выбранный диапазон
Имя файла E:\Диски Зеленого\Holocaust - The Courage To Be.wav

Пиковый уровень 99.4 %
Качество диапазона 100.0 %
CRC 0D6A8357
Копирование... OK

Ошибок не произошло

Конец отчёта

cue
REM GENRE "Heavy Metal"
REM DATE 2000
REM DISCID 8E0C1A0A
REM COMMENT "ExactAudioCopy v0.95b4"
PERFORMER "Holocaust"
TITLE "The Courage To Be"
FILE "Holocaust - The Courage To Be.ape" WAVE
TRACK 01 AUDIO
TITLE "The collective"
PERFORMER "Holocaust"
INDEX 01 00:00:00
TRACK 02 AUDIO
TITLE "A gentleman┤s penny-farthing"
PERFORMER "Holocaust"
INDEX 00 07:42:05
INDEX 01 07:42:18
TRACK 03 AUDIO
TITLE "Neurosis"
PERFORMER "Holocaust"
INDEX 00 09:36:56
INDEX 01 09:37:38
TRACK 04 AUDIO
TITLE "When Penelope dreams (Part one)"
PERFORMER "Holocaust"
INDEX 00 18:08:61
INDEX 01 18:08:63
TRACK 05 AUDIO
TITLE "When Penelope dreams (Part two)"
PERFORMER "Holocaust"
INDEX 00 22:18:19
INDEX 01 22:18:40
TRACK 06 AUDIO
TITLE "From the mie shaft to the bike shed"
PERFORMER "Holocaust"
INDEX 00 25:21:71
INDEX 01 25:22:53
TRACK 07 AUDIO
TITLE "Fundametalist"
PERFORMER "Holocaust"
INDEX 00 29:03:20
INDEX 01 29:04:48
TRACK 08 AUDIO
TITLE "Spanner omlette"
PERFORMER "Holocaust"
INDEX 00 34:46:58
INDEX 01 34:47:37
TRACK 09 AUDIO
TITLE "Home from home"
PERFORMER "Holocaust"
INDEX 00 39:37:09
INDEX 01 39:39:66
TRACK 10 AUDIO
TITLE "The age of reason"
PERFORMER "Holocaust"
INDEX 00 46:15:68
INDEX 01 46:16:51

spectrum
Image


===================================DOWNLOAD========================================
Holocaust (UK) 2000 - The Courage To Be.rar

_________________
Image
Image


Top
 Profile  
 
 
PostPosted: 30 Nov 2011 
А может смените мне статус?..
User avatar
Joined: 30 Aug 2009
Posts: 824
Lоcаtion: Ачинск, Красноярский край
Age: 32
Name: Стас
:thanx:


Top
 Profile E-mail  
 
 
PostPosted: 30 Nov 2011 
Хиппей (support team)
User avatar
Joined: 30 Jul 2007
Posts: 105098
Lоcаtion: Киев (Kyiv, UA)
Age: 45
Name: Andrey
:thanx:

mirror: MultiUp l Narod

_________________


Top
 Profile E-mail  
 
 
PostPosted: 30 Nov 2011 
Персональный статус
User avatar
Joined: 22 Oct 2011
Posts: 352
Lоcаtion: Moscow
Age: 59
Name: Серёжа
:thanx:


Top
 Profile E-mail  
 
 
PostPosted: 18 May 2012 
Хиппей (support team)
User avatar
Joined: 30 Jul 2007
Posts: 105098
Lоcаtion: Киев (Kyiv, UA)
Age: 45
Name: Andrey
Прогрессив мэтал + какая-то грувастая хрень. Альтернативная хрень.
Звук, как и на будущем релизе ужасен. Техноидный и неживой.

Более-менее понравился трэк под номером 7. Всё остальное среднетемповая нудятина от (для?) бессонницы :yyy:

3/10

_________________


Top
 Profile E-mail  
 
 
PostPosted: 21 Jan 2016 
Доктор энтомологии
User avatar
Joined: 22 Jan 2009
Posts: 9183
Lоcаtion: Даугавпилс
Age: 43
Name: Алексей
Оценил с утречка прошлогодний альбом Holocaust. Жуткое нудно! По сути это крайне хлипкая криво сыгранная тень британской волны хэви металу, однако разбодяженное приальтернативненным нечто.


Top
 Profile  
 
 
PostPosted: 21 Jan 2016 
Состояние Сергей
Joined: 18 Aug 2007
Posts: 3229
Lоcаtion: Владивосток
Age: 43
Name: Николай Николаевич
ни хрена вы не соображаете в великом искусстве))) Holocaust круть!!!


Top
 Profile  
 
Display posts from previous:  Sort by  
Post new topic Reply to topic  [ 7 posts ] 

All times are UTC + 3 hours


Who is online

Users browsing this forum: No registered users and 2 guests


You cannot post new topics in this forum
You cannot reply to topics in this forum
You cannot edit your posts in this forum
You cannot delete your posts in this forum
You cannot post attachments in this forum

Search for:
Яндекс.Метрика
Powered by phpBB © 2000, 2002, 2005, 2007 phpBB Group