\m/ 80's metal \m/

Информационно-аналитический форум "80 см пыли" (In Search We Trust) "У нас никто никуда не спешит"
Железнодорожная биржа - RailAgent
It is currently 21 May 2018

All times are UTC + 3 hours

Spoiler
Chat - temporary registration for foreign users (please leave your application here)







Post new topic Reply to topic  [ 5 posts ] 
Author Message
 
PostPosted: 30 Nov 2011 
труъ антисионист
User avatar
Joined: 01 Aug 2007
Posts: 4541
Lоcаtion: Откуда и большинство из нас
Age: 37
Name: Дядя Вова
Image
Группа: Holocaust
Альбом: Covenant
Год: 1998
Стиль: Heavy Metal
Страна: UK
Формат: FLAC
Размер: 550 MB

******************************************************************************

Line Up:

John Mortimer - vocals & guitar
David Rosie - bass
Steve Cowen - drums


Tracks:
1. Leper's Progress 04:05
2. Salt Heart 06:39
3. Return to Dust 07:29
4. Paradox 00:37
5. The Battle of Soaring Woodhelven 16:36
6. Valley of Megiddo 06:03
7. Mount Thunder 05:20
8. We Shall See Him as He Is 06:11
9. Alexander 09:23
10. The Infinite 02:18


LOG
EAC extraction logfile from 30. October 2005, 1:34 for CD
Holocaust / Covenant

Used drive : PIONEER DVD-RW DVR-109 Adapter: 1 ID: 0
Read mode : Secure with NO C2, accurate stream, disable cache
Read offset correction : 48
Overread into Lead-In and Lead-Out : No

Used output format : Internal WAV Routines
44.100 Hz; 16 Bit; Stereo

Other options :
Fill up missing offset samples with silence : Yes
Delete leading and trailing silent blocks : No
Installed external ASPI interface


Range status and errors
Selected range
Filename F:\Holocaust - Covenant\Holocaust - Covenant.wav

Peak level 99.4 %
Range quality 100.0 %
CRC EEAF5F53
Copy OK

No errors occured

End of status report

cue
PERFORMER "Holocaust"
TITLE "Covenant"
FILE "Holocaust - Covenant.flac" WAVE
TRACK 01 AUDIO
TITLE "Leper's Progress"
PERFORMER "Holocaust"
INDEX 01 00:00:00
TRACK 02 AUDIO
TITLE "Salt Heart"
PERFORMER "Holocaust"
INDEX 01 04:05:65
TRACK 03 AUDIO
TITLE "Return to Dust"
PERFORMER "Holocaust"
INDEX 01 10:45:47
TRACK 04 AUDIO
TITLE "Paradox"
PERFORMER "Holocaust"
INDEX 01 18:14:52
TRACK 05 AUDIO
TITLE "The Battle of Soaring Woodhelven"
PERFORMER "Holocaust"
INDEX 01 18:51:37
TRACK 06 AUDIO
TITLE "Valley of Megiddo"
PERFORMER "Holocaust"
INDEX 00 35:24:65
INDEX 01 35:27:45
TRACK 07 AUDIO
TITLE "Mount Thunder"
PERFORMER "Holocaust"
INDEX 00 41:28:65
INDEX 01 41:30:45
TRACK 08 AUDIO
TITLE "We Shall See Him As He Is"
PERFORMER "Holocaust"
INDEX 00 46:50:22
INDEX 01 46:51:02
TRACK 09 AUDIO
TITLE "Alexander"
PERFORMER "Holocaust"
INDEX 00 53:02:07
INDEX 01 53:02:60
TRACK 10 AUDIO
TITLE "The Infinite"
PERFORMER "Holocaust"
INDEX 01 62:26:40

spectrum
Image



===================================DOWNLOAD========================================


Holocaust (UK) 1998 Covenant.rar

_________________
Image
Image


Top
 Profile  
 
 
PostPosted: 30 Nov 2011 
А может смените мне статус?..
User avatar
Joined: 30 Aug 2009
Posts: 824
Lоcаtion: Ачинск, Красноярский край
Age: 32
Name: Стас
:thanx:


Top
 Profile E-mail  
 
 
PostPosted: 30 Nov 2011 
Хиппей (support team)
User avatar
Joined: 30 Jul 2007
Posts: 103496
Lоcаtion: Киев (Kyiv, UA)
Age: 44
Name: Andrey
:thanx:

mirror: MultiUp l Narod

_________________


Top
 Profile E-mail  
 
 
PostPosted: 30 Nov 2011 
Персональный статус
User avatar
Joined: 22 Oct 2011
Posts: 352
Lоcаtion: Moscow
Age: 59
Name: Серёжа
:thanx:


Top
 Profile E-mail  
 
 
PostPosted: 19 May 2012 
Хиппей (support team)
User avatar
Joined: 30 Jul 2007
Posts: 103496
Lоcаtion: Киев (Kyiv, UA)
Age: 44
Name: Andrey
В общем, и этот альбом представляет уже из себя что-то прогрессивно-металлическое и непонятное для меня. Особенно рекомендуется для снятия запора трэк под названием "The Battle of Soaring Woodhelven" :meloman:
На Ютубе его не нашёл, а самому пока лень туда заливать :pardon:

3/10

_________________


Top
 Profile E-mail  
 
Display posts from previous:  Sort by  
Post new topic Reply to topic  [ 5 posts ] 

All times are UTC + 3 hours


Who is online

Users browsing this forum: No registered users and 2 guests


You cannot post new topics in this forum
You cannot reply to topics in this forum
You cannot edit your posts in this forum
You cannot delete your posts in this forum
You cannot post attachments in this forum

Search for:
Яндекс.Метрика
Powered by phpBB © 2000, 2002, 2005, 2007 phpBB Group