\m/ 80's metal \m/

Информационно-аналитический форум "80 см пыли" (In Search We Trust) "У нас никто никуда не спешит"
Железнодорожная биржа - RailAgent
It is currently 20 Jul 2018

All times are UTC + 3 hours

Spoiler
Chat - temporary registration for foreign users (please leave your application here)







Post new topic Reply to topic  [ 5 posts ] 
Author Message
 
PostPosted: 30 Nov 2011 
труъ антисионист
User avatar
Joined: 01 Aug 2007
Posts: 4541
Lоcаtion: Откуда и большинство из нас
Age: 37
Name: Дядя Вова
Image

Группа: Holocaust
Альбом: Spirits Fly
Год: 1996
Стиль: Heavy Metal
Страна: UK
Формат: APE
Размер: 446 Mb

******************************************************************************

Line Up:

John Mortimer - vocals & guitar
David Rosie - bass
Steve Cowen - drums


Tracks:
1. Into Lebanon 05:08
2. The Small Hours 07:02
3. Hypnosis of Birds 07:32
4. The Tower 07:51
5. Book of Season 02:21
6. Mercier and Camier 02:56
7. Summer Tides 02:54
8. Mortal Mother 04:17
9. Cairnpapple Hill 02:03
10. In the Dark Places of the Earth 06:38
11. Caledonia 03:58
12. Heavy Metal Mania 03:46
13. Death or Glory 03:20
14. Master of Puppets (Metallica cover) 08:09


LOG
Отчёт EAC об извлечении, выполненном 29. июля 2009, 12:28 для диска:
Holocaust / Spirits Fly

Дисковод: ASUS DRW-2014S1 Adapter: 0 ID: 0
Режим чтения: Достоверный (C2: нет, Точный поток: да, Отключение кэша: да)
Коррекция смещения при чтении: 6
Способность читать области Lead-in и Lead-out : Нет

Выходной формат: Внутренние WAV-операции
44.100 Гц; 16 бит; стерео

Другие параметры:
Заполнение пропущенных сэмплов тишиной : Да
Удаление блоков с тишиной в начале и конце : Нет
Установленный внешний ASPI-интерфейс


Характеристики диапазона извлечения и сообщения об ошибках
Выбранный диапазон
Имя файла E:\Диски Зеленого\Holocaust - Spirits Fly.wav

Пиковый уровень 99.9 %
Качество диапазона 100.0 %
CRC C1C85FEB
Копирование... OK

Ошибок не произошло

Конец отчёта

cue
REM GENRE "Thrash Metal"
REM DATE 1996
REM DISCID D210220E
REM COMMENT "ExactAudioCopy v0.95b4"
PERFORMER "Holocaust"
TITLE "Spirits Fly"
FILE "Holocaust - Spirits Fly.ape" WAVE
TRACK 01 AUDIO
TITLE "Into Lebanon"
PERFORMER "Holocaust"
FLAGS DCP
INDEX 00 00:00:00
INDEX 01 00:00:30
TRACK 02 AUDIO
TITLE "The Small Hours"
PERFORMER "Holocaust"
FLAGS DCP
INDEX 01 05:15:20
TRACK 03 AUDIO
TITLE "Hypnosis Of Birds"
PERFORMER "Holocaust"
FLAGS DCP
INDEX 01 12:23:35
TRACK 04 AUDIO
TITLE "The Tower"
PERFORMER "Holocaust"
FLAGS DCP
INDEX 01 20:13:05
TRACK 05 AUDIO
TITLE "Book Of Seasons"
PERFORMER "Holocaust"
FLAGS DCP
INDEX 01 27:52:17
TRACK 06 AUDIO
TITLE "Mercier & Camier"
PERFORMER "Holocaust"
FLAGS DCP
INDEX 01 30:13:50
TRACK 07 AUDIO
TITLE "Summer Tides"
PERFORMER "Holocaust"
FLAGS DCP
INDEX 01 33:13:70
TRACK 08 AUDIO
TITLE "Mortal Mother"
PERFORMER "Holocaust"
FLAGS DCP
INDEX 01 36:12:47
TRACK 09 AUDIO
TITLE "Cairnpapple Hill"
PERFORMER "Holocaust"
FLAGS DCP
INDEX 01 40:34:32
TRACK 10 AUDIO
TITLE "In The Dark Places Of The Earth"
PERFORMER "Holocaust"
FLAGS DCP
INDEX 01 42:37:42
TRACK 11 AUDIO
TITLE "Caledonia"
PERFORMER "Holocaust"
FLAGS DCP
INDEX 01 49:20:15
TRACK 12 AUDIO
TITLE "Heavy Metal Mania"
PERFORMER "Holocaust"
FLAGS DCP
INDEX 01 53:23:12
TRACK 13 AUDIO
TITLE "Death & Glory"
PERFORMER "Holocaust"
FLAGS DCP
INDEX 01 57:13:30
TRACK 14 AUDIO
TITLE "Master Of Puppets"
PERFORMER "Holocaust"
FLAGS DCP
INDEX 01 60:37:55

spectrum
Image



===================================DOWNLOAD========================================

Holocaust (UK) 1996 Spirits Fly.rar

_________________
Image
Image


Top
 Profile  
 
 
PostPosted: 30 Nov 2011 
А может смените мне статус?..
User avatar
Joined: 30 Aug 2009
Posts: 824
Lоcаtion: Ачинск, Красноярский край
Age: 32
Name: Стас
:thanx:


Top
 Profile E-mail  
 
 
PostPosted: 30 Nov 2011 
Хиппей (support team)
User avatar
Joined: 30 Jul 2007
Posts: 105153
Lоcаtion: Киев (Kyiv, UA)
Age: 45
Name: Andrey
:thanx:

mirror: MultiUp l Narod

_________________


Top
 Profile E-mail  
 
 
PostPosted: 30 Nov 2011 
Персональный статус
User avatar
Joined: 22 Oct 2011
Posts: 352
Lоcаtion: Moscow
Age: 59
Name: Серёжа
:thanx:


Top
 Profile E-mail  
 
 
PostPosted: 19 May 2012 
Хиппей (support team)
User avatar
Joined: 30 Jul 2007
Posts: 105153
Lоcаtion: Киев (Kyiv, UA)
Age: 45
Name: Andrey
Тьху. И здесь тягучий, медленный и якобы мрачный хэви с типа прогом :(

3/10

Порадовали лишь бонусы старых записей каверов. С классическими мелодиями, ритмами и названиями :meloman: :true:

_________________


Top
 Profile E-mail  
 
Display posts from previous:  Sort by  
Post new topic Reply to topic  [ 5 posts ] 

All times are UTC + 3 hours


Who is online

Users browsing this forum: No registered users and 1 guest


You cannot post new topics in this forum
You cannot reply to topics in this forum
You cannot edit your posts in this forum
You cannot delete your posts in this forum
You cannot post attachments in this forum

Search for:
Яндекс.Метрика
cron
Powered by phpBB © 2000, 2002, 2005, 2007 phpBB Group