\m/ 80's metal \m/

Информационно-аналитический форум "80 см пыли" (In Search We Trust) "У нас никто никуда не спешит"
Железнодорожная биржа - RailAgent
It is currently 21 May 2018

All times are UTC + 3 hours

Spoiler
Chat - temporary registration for foreign users (please leave your application here)







Post new topic Reply to topic  [ 4 posts ] 
Author Message
 
PostPosted: 30 Nov 2011 
труъ антисионист
User avatar
Joined: 01 Aug 2007
Posts: 4541
Lоcаtion: Откуда и большинство из нас
Age: 37
Name: Дядя Вова
Image

Группа: Holocaust
Альбом: Nightcomers
Год: 1981 [Re 2000]
Стиль: Heavy Metal
Страна: UK
Формат: APE
Размер: 400 MB

******************************************************************************

Line Up:

Gary Lettice - Vocals
John Mortimer - Guitar
Ed Dudley - Guitar
Robin Begg - Bass
Paul Collins - Drums


Tracks:
1. Smokin' Valves 03:42
2. Death or Glory 03:36
3. Come on Back 03:05
4. Mavrock 05:23 s
5. It Don't Matter to Me 03:14
6. Cryin' Shame 03:10
7. Heavy Metal Mania 04:50
8. Push It Around 04:00
9. The Nightcomers 06:14
10. Heavy Metal Mania (single version)
11. Love's Power
12. Only as Young as You Feel


LOG
Exact Audio Copy V0.99 prebeta 4 from 23. January 2008

EAC extraction logfile from 9. September 2008, 16:21

Holocaust / The Nightcomers

Used drive : HP CD-Writer cd16b Adapter: 2 ID: 0

Read mode : Secure
Utilize accurate stream : Yes
Defeat audio cache : Yes
Make use of C2 pointers : No

Read offset correction : 12
Overread into Lead-In and Lead-Out : No
Fill up missing offset samples with silence : Yes
Delete leading and trailing silent blocks : No
Null samples used in CRC calculations : Yes
Used interface : Native Win32 interface for Win NT & 2000

Used output format : Internal WAV Routines
Sample format : 44.100 Hz; 16 Bit; Stereo


TOC of the extracted CD

Track | Start | Length | Start sector | End sector
---------------------------------------------------------
1 | 0:00.00 | 3:42.57 | 0 | 16706
2 | 3:42.57 | 3:36.39 | 16707 | 32945
3 | 7:19.21 | 3:05.74 | 32946 | 46894
4 | 10:25.20 | 5:23.56 | 46895 | 71175
5 | 15:49.01 | 3:14.71 | 71176 | 85796
6 | 19:03.72 | 3:10.65 | 85797 | 100111
7 | 22:14.62 | 4:51.25 | 100112 | 121961
8 | 27:06.12 | 4:00.36 | 121962 | 139997
9 | 31:06.48 | 6:15.19 | 139998 | 168141
10 | 37:21.67 | 4:07.24 | 168142 | 186690
11 | 41:29.16 | 3:13.43 | 186691 | 201208
12 | 44:42.59 | 4:06.02 | 201209 | 219660


Range status and errors

Selected range

Filename F:\My Rips\Holocaust [2000] The Nightcomers\Holocaust - The Nightcomers.wav

Peak level 100.0 %
Range quality 99.9 %
Copy CRC 83916235
Copy OK

No errors occurred


AccurateRip summary

Track 1 not present in database
Track 2 not present in database
Track 3 not present in database
Track 4 not present in database
Track 5 not present in database
Track 6 not present in database
Track 7 not present in database
Track 8 not present in database
Track 9 not present in database
Track 10 not present in database
Track 11 not present in database
Track 12 not present in database

None of the tracks are present in the AccurateRip database

End of status report

cue
REM GENRE Hard Rock
REM DATE 2000
REM DISCID A00B700C
REM COMMENT ExactAudioCopy v0.99pb4
PERFORMER "Holocaust"
TITLE "The Nightcomers"
REM REPLAYGAIN_ALBUM_GAIN -8.46 dB
REM REPLAYGAIN_ALBUM_PEAK 1.000000
FILE "Holocaust - The Nightcomers.ape" WAVE
TRACK 01 AUDIO
TITLE "Smokin' Valves"
REM REPLAYGAIN_TRACK_GAIN -7.07 dB
REM REPLAYGAIN_TRACK_PEAK 0.920288
FLAGS DCP
INDEX 01 00:00:00
TRACK 02 AUDIO
TITLE "Death Or Glory"
REM REPLAYGAIN_TRACK_GAIN -7.87 dB
REM REPLAYGAIN_TRACK_PEAK 0.942291
FLAGS DCP
INDEX 01 03:42:57
TRACK 03 AUDIO
TITLE "Come On Back"
REM REPLAYGAIN_TRACK_GAIN -7.42 dB
REM REPLAYGAIN_TRACK_PEAK 0.939514
FLAGS DCP
INDEX 00 07:15:45
INDEX 01 07:19:21
TRACK 04 AUDIO
TITLE "Mavrock"
REM REPLAYGAIN_TRACK_GAIN -7.98 dB
REM REPLAYGAIN_TRACK_PEAK 0.938812
FLAGS DCP
INDEX 00 10:21:41
INDEX 01 10:25:20
TRACK 05 AUDIO
TITLE "It Don't Matter To Me"
REM REPLAYGAIN_TRACK_GAIN -7.38 dB
REM REPLAYGAIN_TRACK_PEAK 0.927216
FLAGS DCP
INDEX 00 15:45:25
INDEX 01 15:49:01
TRACK 06 AUDIO
TITLE "Cryin' Shame"
REM REPLAYGAIN_TRACK_GAIN -7.94 dB
REM REPLAYGAIN_TRACK_PEAK 0.940186
FLAGS DCP
INDEX 00 19:00:22
INDEX 01 19:03:72
TRACK 07 AUDIO
TITLE "Heavy Metal Mania"
REM REPLAYGAIN_TRACK_GAIN -8.12 dB
REM REPLAYGAIN_TRACK_PEAK 0.943146
FLAGS DCP
INDEX 00 22:11:10
INDEX 01 22:14:62
TRACK 08 AUDIO
TITLE "Push It Around"
REM REPLAYGAIN_TRACK_GAIN -7.34 dB
REM REPLAYGAIN_TRACK_PEAK 0.936371
FLAGS DCP
INDEX 00 27:02:35
INDEX 01 27:06:12
TRACK 09 AUDIO
TITLE "The Nightcomers"
REM REPLAYGAIN_TRACK_GAIN -7.98 dB
REM REPLAYGAIN_TRACK_PEAK 0.941620
FLAGS DCP
INDEX 00 31:02:73
INDEX 01 31:06:48
TRACK 10 AUDIO
TITLE "Heavy Metal Mania (Single Version)"
REM REPLAYGAIN_TRACK_GAIN -9.08 dB
REM REPLAYGAIN_TRACK_PEAK 0.999969
FLAGS DCP
INDEX 00 37:18:21
INDEX 01 37:21:67
TRACK 11 AUDIO
TITLE "Love's Power"
REM REPLAYGAIN_TRACK_GAIN -10.16 dB
REM REPLAYGAIN_TRACK_PEAK 1.000000
FLAGS DCP
INDEX 00 41:25:40
INDEX 01 41:29:16
TRACK 12 AUDIO
TITLE "Only As Young As You Feel"
REM REPLAYGAIN_TRACK_GAIN -10.13 dB
REM REPLAYGAIN_TRACK_PEAK 0.991119
FLAGS DCP
INDEX 00 44:39:16
INDEX 01 44:42:59

spectrum
Image


===================================DOWNLOAD========================================

Holocaust (UK) 1981 Nightcomers [Re 2000].rar

_________________
Image
Image


Top
 Profile  
 
 
PostPosted: 30 Nov 2011 
Хиппей (support team)
User avatar
Joined: 30 Jul 2007
Posts: 103491
Lоcаtion: Киев (Kyiv, UA)
Age: 44
Name: Andrey
Забавная группа...
То их Металлика перепевает, то наоборот :starz:

:thanx:

mirror: MultiUp l Narod

_________________


Top
 Profile E-mail  
 
 
PostPosted: 01 Dec 2011 
консэрваторъ
Joined: 11 Aug 2007
Posts: 15329
Lоcаtion: Псков
Age: 44
Name: Сергей
Scatterbrain wrote:
их Металлика перепевает

ага... The Small Hours

_________________
THRASH 'EM ALL


Top
 Profile E-mail  
 
 
PostPosted: 20 May 2012 
Хиппей (support team)
User avatar
Joined: 30 Jul 2007
Posts: 103491
Lоcаtion: Киев (Kyiv, UA)
Age: 44
Name: Andrey
Так, ну это утяжелённый панк на грани NWOBHM :crazy: :true:

8/10

Впомнил эту запись только сейчас, когда начал слушать - Мисфитс припомнились сразу :dance: Хотя, должно быть наоборот :nunu:

_________________


Top
 Profile E-mail  
 
Display posts from previous:  Sort by  
Post new topic Reply to topic  [ 4 posts ] 

All times are UTC + 3 hours


Who is online

Users browsing this forum: No registered users and 1 guest


You cannot post new topics in this forum
You cannot reply to topics in this forum
You cannot edit your posts in this forum
You cannot delete your posts in this forum
You cannot post attachments in this forum

Search for:
Яндекс.Метрика
Powered by phpBB © 2000, 2002, 2005, 2007 phpBB Group