\m/ 80's metal \m/

Информационно-аналитический форум "80 см пыли" (In Search We Trust) "У нас никто никуда не спешит"
Железнодорожная биржа - RailAgent
It is currently 17 Jul 2018

All times are UTC + 3 hours

Spoiler
Chat - temporary registration for foreign users (please leave your application here)







Post new topic Reply to topic  [ 8 posts ] 
Author Message
 
PostPosted: 12 Nov 2011 
Пионэръ
User avatar
Joined: 15 Mar 2011
Posts: 15
Lоcаtion: Spain
Name: Tuco Pacífico
Image

Band: Hiroshima
Album: Hiroshima
Year: 1989
Country: Spain
Genre: Hard Rock/AORGay
Format: CDRip (APE + CUE + LOG + Covers)
Length: 33:17 min
Size: 281 mb
Release: by Tuco Pacífico[EsparaelMetal]

Image

Image

Tracklist:

1. Come on
2. Forever
3. Missing you
4. Broken heart
5. Lonliness
6. Feel the wind
7. Don’t close your eyes
8. Tell Me What You Want
9. We belong

Скачать:
MULTILINK

LOG
Code:
Exact Audio Copy V1.0 beta 1 from 15. November 2010

EAC extraction logfile from 5. November 2011, 10:12

Hiroshima / Hiroshima

Used drive  : TSSTcorpCDDVDW SE-S084F   Adapter: 3  ID: 0

Read mode               : Secure
Utilize accurate stream : Yes
Defeat audio cache      : Yes
Make use of C2 pointers : No

Read offset correction                      : 6
Overread into Lead-In and Lead-Out          : No
Fill up missing offset samples with silence : Yes
Delete leading and trailing silent blocks   : No
Null samples used in CRC calculations       : Yes
Used interface                    : Native Win32 interface for Win NT & 2000

Used output format : Internal WAV Routines
Sample format      : 44.100 Hz; 16 Bit; Stereo

TOC of the extracted CD

      Track |   Start  |  Length  | Start sector | End sector 
     ---------------------------------------------------------
         1  |  0:00.00 |  3:17.67 |         0    |    14841   
         2  |  3:17.67 |  3:54.67 |     14842    |    32458   
         3  |  7:12.59 |  5:36.40 |     32459    |    57698   
         4  | 12:49.24 |  3:33.06 |     57699    |    73679   
         5  | 16:22.30 |  4:11.45 |     73680    |    92549   
         6  | 20:34.00 |  2:40.58 |     92550    |   104607   
         7  | 23:14.58 |  3:12.32 |    104608    |   119039   
         8  | 26:27.15 |  3:33.19 |    119040    |   135033   
         9  | 30:00.34 |  3:16.64 |    135034    |   149797   

Range status and errors

Selected range

      Filename D:\Hiroshima\Hiroshima - Hiroshima.wav

      Peak level 99.5 %
      Extraction speed 0.1 X
      Range quality 100.0 %
      Test CRC 22479194
      Copy CRC 22479194
      Copy OK

No errors occurred

   
AccurateRip summary
   
Track  1  not present in database
Track  2  not present in database
Track  3  not present in database
Track  4  not present in database
Track  5  not present in database
Track  6  not present in database
Track  7  not present in database
Track  8  not present in database
Track  9  not present in database
   
None of the tracks are present in the AccurateRip database

End of status report


cue
REM GENRE "Hard Rock/AORGay"
REM DATE 1999
REM DISCID 8507CD09
REM COMMENT "ExactAudioCopy v1.0b1"
PERFORMER "Hiroshima"
TITLE "Hiroshima"
FILE "Hiroshima - Hiroshima.ape" WAVE
TRACK 01 AUDIO
TITLE "Come On"
PERFORMER "Hiroshima"
INDEX 01 00:00:00
TRACK 02 AUDIO
TITLE "Forever"
PERFORMER "Hiroshima"
INDEX 00 03:12:67
INDEX 01 03:17:67
TRACK 03 AUDIO
TITLE "Missing You"
PERFORMER "Hiroshima"
INDEX 00 07:07:59
INDEX 01 07:12:59
TRACK 04 AUDIO
TITLE "Broken Heart"
PERFORMER "Hiroshima"
INDEX 00 12:44:24
INDEX 01 12:49:24
TRACK 05 AUDIO
TITLE "Loneliness"
PERFORMER "Hiroshima"
INDEX 00 16:17:30
INDEX 01 16:22:30
TRACK 06 AUDIO
TITLE "Feel The Wind"
PERFORMER "Hiroshima"
INDEX 00 20:29:00
INDEX 01 20:34:00
TRACK 07 AUDIO
TITLE "Don┤t Close Your Eyes"
PERFORMER "Hiroshima"
INDEX 00 23:09:58
INDEX 01 23:14:58
TRACK 08 AUDIO
TITLE "Tell Me What You Want"
PERFORMER "Hiroshima"
INDEX 00 26:22:15
INDEX 01 26:27:15
TRACK 09 AUDIO
TITLE "We Belong"
PERFORMER "Hiroshima"
INDEX 00 29:55:34
INDEX 01 30:00:34

spectrum
Image


Top
 Profile E-mail  
 
 
PostPosted: 12 Nov 2011 
*** Умер ***
User avatar
Joined: 25 Apr 2009
Posts: 2188
Lоcаtion: Санкт-Петербург
Age: 32
Name: Кирилл
:thanx: :true:


Top
 Profile E-mail  
 
 
PostPosted: 12 Nov 2011 
хард н хэвщик (support team)
User avatar
Joined: 02 Jun 2008
Posts: 16880
Lоcаtion: Н.Новгород
Age: 31
Name: Артем
спасибо! вот это я точно покачаю :true:
do you have FORCE S/T 1989 (spain hard rock) album ?


Top
 Profile  
 
 
PostPosted: 13 Nov 2011 
Хиппей (support team)
User avatar
Joined: 30 Jul 2007
Posts: 105036
Lоcаtion: Киев (Kyiv, UA)
Age: 45
Name: Andrey
Thanx Tuco :thanx:

_________________


Top
 Profile E-mail  
 
 
PostPosted: 28 Dec 2011 
Генеральный thrasher
User avatar
Joined: 03 Oct 2008
Posts: 3405
Lоcаtion: Ханты-Мансийский АО
Age: 43
Name: Сергей
Thanks! :true: :losik:


Top
 Profile  
 
 
PostPosted: 28 Dec 2011 
Персональный статус
User avatar
Joined: 22 Oct 2011
Posts: 352
Lоcаtion: Moscow
Age: 59
Name: Серёжа
:thanx:


Top
 Profile E-mail  
 
 
PostPosted: 17 May 2012 
Хиппей (support team)
User avatar
Joined: 30 Jul 2007
Posts: 105036
Lоcаtion: Киев (Kyiv, UA)
Age: 45
Name: Andrey
mirror: MultiUp l Narod

Хороший мелодичный хард с АОРом.
Хитовенький весь такой, приятный, классический. Красивые соляки и клавишные пассажи. Не знаю, как на счёт геев, но поют и играют хорошо :meloman:

7/10

_________________


Top
 Profile E-mail  
 
 
PostPosted: 18 May 2012 
Пионэръ
User avatar
Joined: 08 Nov 2010
Posts: 43
Lоcаtion: Россия
Name: Юрий
Спасибо, забираю.


Top
 Profile E-mail  
 
Display posts from previous:  Sort by  
Post new topic Reply to topic  [ 8 posts ] 

All times are UTC + 3 hours


Who is online

Users browsing this forum: No registered users and 3 guests


You cannot post new topics in this forum
You cannot reply to topics in this forum
You cannot edit your posts in this forum
You cannot delete your posts in this forum
You cannot post attachments in this forum

Search for:
Яндекс.Метрика
Powered by phpBB © 2000, 2002, 2005, 2007 phpBB Group