\m/ 80's metal \m/

Информационно-аналитический форум "80 см пыли" (In Search We Trust) "У нас никто никуда не спешит"
Me For You - http://me-4u.com
It is currently 21 Sep 2018

All times are UTC + 3 hours

Spoiler
Chat - temporary registration for foreign users (please leave your application here)







Post new topic Reply to topic  [ 6 posts ] 
Author Message
 
PostPosted: 02 Oct 2011 
Хиппей (support team)
User avatar
Joined: 30 Jul 2007
Posts: 106389
Lоcаtion: Киев (Kyiv, UA)
Age: 45
Name: Andrey
Heavy Pettin - 1983 - Lettin Loose (reissued in 2003 by Majestic Rock) [flac]

Attachment:
front.jpg
front.jpg [ 4.28 MiB | Viewed 145 times ]


Genre: NWOBHM
Location: England
Format: flac+cue+log+scans
Size: 367 Mb


Line-up:
Brian Waugh - Bass
Gary Moat - Drums
Gordon Bonnar - Guitars
Punky Mendoza - Guitars
Steve "Hamie" Hayman - Vocals

1. In And Out of Love - 03:50
2. Broken Heart - 04:08
3. Love on the Run - 04:00
4. Love Times Love - 03:59
5. Victims of the Night - 05:14
6. Rock Me - 04:58
7. Shout It out - 03:34
8. Devil in Her Eyes - 05:08
9. Hell Is Beautiful - 04:07
10. Roll The Dice - 04:05
11. Shadows Of The Night - 04:41

TPT: 48:37

Источник: рип Вити rd(rd)

MultiUp l Narod

log
Exact Audio Copy V1.0 beta 1 from 15. November 2010

EAC extraction logfile from 24. May 2011, 23:47

Heavy Pettin / Lettin Loose

Used drive : MATSHITABD-CMB UJ242AS Adapter: 0 ID: 1

Read mode : Secure
Utilize accurate stream : Yes
Defeat audio cache : Yes
Make use of C2 pointers : No

Read offset correction : 103
Overread into Lead-In and Lead-Out : No
Fill up missing offset samples with silence : Yes
Delete leading and trailing silent blocks : No
Null samples used in CRC calculations : Yes
Used interface : Native Win32 interface for Win NT & 2000

Used output format : User Defined Encoder
Selected bitrate : 32 kBit/s
Quality : High
Add ID3 tag : Yes
Command line compressor : C:\Program Files (x86)\Exact Audio Copy\Flac\flac.exe
Additional command line options : -6 -V %s


TOC of the extracted CD

Track | Start | Length | Start sector | End sector
---------------------------------------------------------
1 | 0:00.00 | 3:53.30 | 0 | 17504
2 | 3:53.30 | 4:17.00 | 17505 | 36779
3 | 8:10.30 | 4:03.45 | 36780 | 55049
4 | 12:14.00 | 4:03.00 | 55050 | 73274
5 | 16:17.00 | 5:24.00 | 73275 | 97574
6 | 21:41.00 | 5:02.30 | 97575 | 120254
7 | 26:43.30 | 3:43.00 | 120255 | 136979
8 | 30:26.30 | 5:12.00 | 136980 | 160379
9 | 35:38.30 | 4:12.45 | 160380 | 179324
10 | 39:51.00 | 4:05.00 | 179325 | 197699
11 | 43:56.00 | 4:41.67 | 197700 | 218841


Range status and errors

Selected range

Filename C:\EACrip\Heavy Pettin - Lettin Loose.wav

Peak level 99.5 %
Extraction speed 0.1 X
Range quality 100.0 %
Test CRC 0D1A8C83
Copy CRC 0D1A8C83
Copy OK

No errors occurred


AccurateRip summary

Track 1 cannot be verified as accurate (confidence 2) [AF71153A], AccurateRip returned [DB784009]
Track 2 cannot be verified as accurate (confidence 2) [E8695410], AccurateRip returned [4E7BFA77]
Track 3 cannot be verified as accurate (confidence 2) [D0BC90F1], AccurateRip returned [0F1FA3F8]
Track 4 cannot be verified as accurate (confidence 2) [6CA72803], AccurateRip returned [9498F465]
Track 5 cannot be verified as accurate (confidence 2) [BF173F27], AccurateRip returned [5C4EAA49]
Track 6 cannot be verified as accurate (confidence 2) [E17E5E84], AccurateRip returned [22DE1D54]
Track 7 cannot be verified as accurate (confidence 2) [D5486BFE], AccurateRip returned [189D862A]
Track 8 cannot be verified as accurate (confidence 2) [3304FD9B], AccurateRip returned [003C5EA2]
Track 9 cannot be verified as accurate (confidence 2) [BB73AC7C], AccurateRip returned [77C0BF17]
Track 10 cannot be verified as accurate (confidence 2) [D32C6E82], AccurateRip returned [4735D60F]
Track 11 cannot be verified as accurate (confidence 2) [E427BF96], AccurateRip returned [4BD984FC]

No tracks could be verified as accurate
You may have a different pressing from the one(s) in the database

End of status report


cue
REM GENRE Rock
REM DATE 1983
REM DISCID 950B650B
REM COMMENT "ExactAudioCopy v1.0b1"
PERFORMER "Heavy Pettin"
TITLE "Lettin Loose"
FILE "Heavy Pettin - Lettin Loose.flac" WAVE
TRACK 01 AUDIO
TITLE "In And Out Of Love"
PERFORMER "Heavy Pettin"
INDEX 01 00:00:00
TRACK 02 AUDIO
TITLE "Broken Heart"
PERFORMER "Heavy Pettin"
INDEX 01 03:53:30
TRACK 03 AUDIO
TITLE "Love On The Run"
PERFORMER "Heavy Pettin"
INDEX 01 08:10:30
TRACK 04 AUDIO
TITLE "Love Times Love"
PERFORMER "Heavy Pettin"
INDEX 01 12:14:00
TRACK 05 AUDIO
TITLE "Victims Of The Night"
PERFORMER "Heavy Pettin"
INDEX 01 16:17:00
TRACK 06 AUDIO
TITLE "Rock Me"
PERFORMER "Heavy Pettin"
INDEX 01 21:41:00
TRACK 07 AUDIO
TITLE "Shout It Out"
PERFORMER "Heavy Pettin"
INDEX 01 26:43:30
TRACK 08 AUDIO
TITLE "Devil In Her Eyes"
PERFORMER "Heavy Pettin"
INDEX 01 30:26:30
TRACK 09 AUDIO
TITLE "Hell Is Beautiful"
PERFORMER "Heavy Pettin"
INDEX 01 35:38:30
TRACK 10 AUDIO
TITLE "Roll The Dice"
PERFORMER "Heavy Pettin"
INDEX 01 39:51:00
TRACK 11 AUDIO
TITLE "Shadows Of The Night"
PERFORMER "Heavy Pettin"
INDEX 01 43:56:00


spectre
Attachment:
spectre.png
spectre.png [ 1.43 MiB | Viewed 128 times ]

_________________


Top
 Profile E-mail  
 
 
PostPosted: 02 Oct 2011 
дядя Миша
User avatar
Joined: 17 Oct 2008
Posts: 3054
Lоcаtion: USSR
Age: 56
Name: Khy
Андрюха? А когда свои рипы (купленые у спидека) будешь класть? Ну не солидно же для тебя заниматься ху..нёй.


Top
 Profile  
 
 
PostPosted: 02 Oct 2011 
Хиппей (support team)
User avatar
Joined: 30 Jul 2007
Posts: 106389
Lоcаtion: Киев (Kyiv, UA)
Age: 45
Name: Andrey
Миш, так я пока ничо интересного там нинашол :vic:
По запросам всё выполняю по мере вдохновения и поиска нормального качества.

Данный альбом не просили, просто затесался у меня тут на винте, решил и сюда оформить :pardon:

_________________


Top
 Profile E-mail  
 
 
PostPosted: 02 Oct 2011 
Хиппей (support team)
User avatar
Joined: 30 Jul 2007
Posts: 106389
Lоcаtion: Киев (Kyiv, UA)
Age: 45
Name: Andrey
Кстати, ты вроде свои тож обещал заливать, или мне почудилось? :au:

_________________


Top
 Profile E-mail  
 
 
PostPosted: 02 Oct 2011 
дядя Миша
User avatar
Joined: 17 Oct 2008
Posts: 3054
Lоcаtion: USSR
Age: 56
Name: Khy
:blum:
Я по мере вдохновения и наличия свободного времени (на производство рипа), пихаю на торрент , ну и когда с ММТ совсем становиться скачивать стыдно на шару , и есть диск , рипа которого на ММт нет, то пихаю и туда....
В другие места , Я пихать рипы не могу ........да и зачем .


Top
 Profile  
 
 
PostPosted: 02 Oct 2011 
Хиппей (support team)
User avatar
Joined: 30 Jul 2007
Posts: 106389
Lоcаtion: Киев (Kyiv, UA)
Age: 45
Name: Andrey
Ну вот и поговорили в очередной раз :crazy:
Я тоже не хочу пихать рипы туда, где меня не просют :pardon:

_________________


Top
 Profile E-mail  
 
Display posts from previous:  Sort by  
Post new topic Reply to topic  [ 6 posts ] 

All times are UTC + 3 hours


Who is online

Users browsing this forum: No registered users and 1 guest


You cannot post new topics in this forum
You cannot reply to topics in this forum
You cannot edit your posts in this forum
You cannot delete your posts in this forum
You cannot post attachments in this forum

Search for:
Яндекс.Метрика
Powered by phpBB © 2000, 2002, 2005, 2007 phpBB Group