\m/ 80's metal \m/

Информационно-аналитический форум "80 см пыли" (In Search We Trust) "У нас никто никуда не спешит"
Me For You - http://me-4u.com
It is currently 21 Sep 2018

All times are UTC + 3 hours

Spoiler
Chat - temporary registration for foreign users (please leave your application here)







Post new topic Reply to topic  [ 37 posts ]  Go to page Previous  1, 2
Author Message
 
PostPosted: 01 Oct 2011 
Труъ
User avatar
Joined: 14 Jul 2009
Posts: 158
Lоcаtion: Hell Is Here
Age: 48
Name: Adriano
Ron, Many Thanx, Great Album ! :true:


Top
 Profile E-mail  
 
 
PostPosted: 02 Oct 2011 
*** Умер ***
User avatar
Joined: 25 Apr 2009
Posts: 2188
Lоcаtion: Санкт-Петербург
Age: 32
Name: Кирилл
:thanx:


Top
 Profile E-mail  
 
 
PostPosted: 01 Mar 2012 
Пионэръ
Joined: 22 Jun 2010
Posts: 16
Lоcаtion: Madrid
Name: Xose
Multiupload is not working anymore.
Please, could you upload this album?

Thanks in advance!!


Top
 Profile E-mail  
 
 
PostPosted: 05 Mar 2012 
Зарегился вот...
Joined: 23 Sep 2011
Posts: 8
Lоcаtion: The Netherlands
Name: Ron
Done uploading, here's the new link:
http://www.speedyshare.com/file/CdB8G/H ... S.TeaM.rar


log
Exact Audio Copy V0.99 prebeta 5 from 4. May 2009

EAC extraction logfile from 30. September 2011, 11:56

Horizon / Master Of The Game

Used drive : UFIPUN 81Y3C9M3O Adapter: 3 ID: 0

Read mode : Secure
Utilize accurate stream : Yes
Defeat audio cache : Yes
Make use of C2 pointers : No

Read offset correction : 0
Overread into Lead-In and Lead-Out : No
Fill up missing offset samples with silence : Yes
Delete leading and trailing silent blocks : No
Null samples used in CRC calculations : Yes
Used interface : Installed external ASPI interface

Used output format : User Defined Encoder
Selected bitrate : 32 kBit/s
Quality : High
Add ID3 tag : No
Command line compressor : C:\Program Files\Exact Audio Copy\Flac\flac.exe
Additional command line options : -6 -V %s


TOC of the extracted CD

Track | Start | Length | Start sector | End sector
---------------------------------------------------------
1 | 0:00.00 | 3:52.28 | 0 | 17427
2 | 3:52.28 | 3:35.39 | 17428 | 33591
3 | 7:27.67 | 4:39.69 | 33592 | 54585
4 | 12:07.61 | 3:24.37 | 54586 | 69922
5 | 15:32.23 | 4:33.50 | 69923 | 90447
6 | 20:05.73 | 3:03.07 | 90448 | 104179
7 | 23:09.05 | 4:41.47 | 104180 | 125301
8 | 27:50.52 | 4:19.55 | 125302 | 144781
9 | 32:10.32 | 3:13.27 | 144782 | 159283
10 | 35:23.59 | 4:35.41 | 159284 | 179949


Range status and errors

Selected range

Filename M:\metalmadness\Horizon - Master Of The Game.wav

Peak level 98.3 %
Range quality 100.0 %
Copy CRC C9973C50
Copy OK

No errors occurred

End of status report

cue
REM GENRE "Heavy Metal"
REM DATE 1985
REM DISCID 7F095F0A
REM COMMENT "ExactAudioCopy v0.99pb5"
PERFORMER "Horizon"
TITLE "Master Of The Game"
FILE "Horizon - Master Of The Game.flac" WAVE
TRACK 01 AUDIO
TITLE "Rock This Place"
PERFORMER "Horizon"
INDEX 01 00:00:00
TRACK 02 AUDIO
TITLE "I Need Your Love"
PERFORMER "Horizon"
INDEX 00 03:50:27
INDEX 01 03:52:28
TRACK 03 AUDIO
TITLE "Master Of The Game"
PERFORMER "Horizon"
INDEX 00 07:25:66
INDEX 01 07:27:67
TRACK 04 AUDIO
TITLE "Thank You"
PERFORMER "Horizon"
INDEX 00 12:05:60
INDEX 01 12:07:61
TRACK 05 AUDIO
TITLE "Peace Of Mind"
PERFORMER "Horizon"
INDEX 00 15:30:22
INDEX 01 15:32:23
TRACK 06 AUDIO
TITLE "Guardian Angel"
PERFORMER "Horizon"
INDEX 00 20:03:72
INDEX 01 20:05:73
TRACK 07 AUDIO
TITLE "Dreams"
PERFORMER "Horizon"
INDEX 00 23:07:04
INDEX 01 23:09:05
TRACK 08 AUDIO
TITLE "Rock 'n' Roll Mind"
PERFORMER "Horizon"
INDEX 00 27:48:51
INDEX 01 27:50:52
TRACK 09 AUDIO
TITLE "Runaway Guy"
PERFORMER "Horizon"
INDEX 00 32:08:31
INDEX 01 32:10:32
TRACK 10 AUDIO
TITLE "Desert Fire"
PERFORMER "Horizon"
INDEX 00 35:21:58
INDEX 01 35:23:59

spectrum
Image


Top
 Profile E-mail  
 
 
PostPosted: 05 Mar 2012 
Персональный статус
User avatar
Joined: 04 Mar 2012
Posts: 237
Lоcаtion: Саратов
Name: Василий
:thanx: :thanx:


Top
 Profile E-mail  
 
 
PostPosted: 13 Mar 2012 
Хиппей (support team)
User avatar
Joined: 30 Jul 2007
Posts: 106389
Lоcаtion: Киев (Kyiv, UA)
Age: 45
Name: Andrey
:thanx:

mirror: MultiUp l Speedy l Narod

Хороший альбом. Весь состоящий из хитов. Вот только это не Heavy, а скорее Melodic Heavy/Hard Rock.
По саунду группа ближе к британской школе хард-рока (Rainbow, например).

9/10

_________________


Top
 Profile E-mail  
 
 
PostPosted: 16 Mar 2012 
А может смените мне статус?..
Joined: 12 Dec 2008
Posts: 974
Lоcаtion: BULGARIA
Age: 40
Name: DIMITЪR
Действительно Бас очень низкий и GAIN тоже :( :( :(


Top
 Profile  
 
 
PostPosted: 28 Mar 2012 
Пионэръ
Joined: 22 Jun 2010
Posts: 16
Lоcаtion: Madrid
Name: Xose
Thanks a lot!!!


Top
 Profile E-mail  
 
 
PostPosted: 25 Apr 2012 
Хиппей (support team)
User avatar
Joined: 30 Jul 2007
Posts: 106389
Lоcаtion: Киев (Kyiv, UA)
Age: 45
Name: Andrey
Scatterbrain wrote:
Хороший альбом. Весь состоящий из хитов. Вот только это не Heavy, а скорее Melodic Heavy/Hard Rock.
По саунду группа ближе к британской школе хард-рока (Rainbow, например).

9/10

Переслушал сегодня еще несколько раз альбом. Мдя... вкусы и взгляды меняются, блин, со временем :fingal: Альбом более чем средненький. Ну и сам рип (или запись) грязноват и суховат :pardon:

5/10

_________________


Top
 Profile E-mail  
 
 
PostPosted: 26 Apr 2012 
А может смените мне статус?..
Joined: 12 Dec 2008
Posts: 974
Lоcаtion: BULGARIA
Age: 40
Name: DIMITЪR
Scatterbrain wrote:
Scatterbrain wrote:
Хороший альбом. Весь состоящий из хитов. Вот только это не Heavy, а скорее Melodic Heavy/Hard Rock.
По саунду группа ближе к британской школе хард-рока (Rainbow, например).

9/10

Переслушал сегодня еще несколько раз альбом. Мдя... вкусы и взгляды меняются, блин, со временем :fingal: Альбом более чем средненький. Ну и сам рип (или запись) грязноват и суховат :pardon:

5/10


Хе-хе-хе очень резкое снижение оценки господин СКАТЪР :esel: :esel: :esel: следующий раз можеш снижить оценку до 3 / 10 :nunu: :nunu: :nunu:
Альбомчик очень класньй и всегда слушаю с удоволствие, нет слабая песня а такие альбомьй редкость, помнить ето от меня господин :benya:


Top
 Profile  
 
 
PostPosted: 07 Apr 2013 
А может смените мне статус?..
Joined: 12 Dec 2008
Posts: 974
Lоcаtion: BULGARIA
Age: 40
Name: DIMITЪR
Horizon - Master Of The Game (1985)Vinyl rip
Format: OGG + CUE + LOG @300 kbps

DOWNLOAD: 180upload.com // MEDIAFIRE


Top
 Profile  
 
 
PostPosted: 07 Apr 2013 
парень в очёчкXаX!
User avatar
Joined: 15 Aug 2007
Posts: 2353
Lоcаtion: UK'раина, г. ЛондАн Би-Би-Си
Age: 47
Name: Сергей
поверить не могу, болгарский коллекционер мега-раров потратил 15 €
и рубанул с плеча в формате OGG 300 kbps

качаю, даже не задумываясь :thanx: :thanx: :thanx: :thanx: :thanx: :thanx: :thanx:
:paid: :ula: :ula: :ula: :ula: :ula: :paid:
:thanx: :thanx: :thanx: :thanx: :thanx: :thanx: :thanx:
:thanx: :thanx: :thanx: :thanx: :thanx: :thanx: :thanx:
Image


Top
 Profile  
 
 
PostPosted: 07 Apr 2013 
Хиппей (support team)
User avatar
Joined: 30 Jul 2007
Posts: 106389
Lоcаtion: Киев (Kyiv, UA)
Age: 45
Name: Andrey
:thanx: :thanx: :thanx:

_________________


Top
 Profile E-mail  
 
 
PostPosted: 07 Apr 2013 
парень в очёчкXаX!
User avatar
Joined: 15 Aug 2007
Posts: 2353
Lоcаtion: UK'раина, г. ЛондАн Би-Би-Си
Age: 47
Name: Сергей
Дима!!!!!!!!!!!!!!
какой источник??????????
не слышу винила!!! или это ты до ужОса зафильтровал, как звукорежисеры на мавзолеях и залепил на болвань?

шо за фигня? давай говори быстро :diablo:


Top
 Profile  
 
 
PostPosted: 07 Apr 2013 
Хиппей (support team)
User avatar
Joined: 30 Jul 2007
Posts: 106389
Lоcаtion: Киев (Kyiv, UA)
Age: 45
Name: Andrey
attax wrote:
Дима!!!!!!!!!!!!!!
какой источник??????????

Да какой у него источник может быть? :crazy: Такой как и у меня - спёр где-то :true:
Хотя, я то записи не "ремастерингую" :esel: :esel: :esel:

_________________


Top
 Profile E-mail  
 
 
PostPosted: 07 Apr 2013 
А может смените мне статус?..
Joined: 12 Dec 2008
Posts: 974
Lоcаtion: BULGARIA
Age: 40
Name: DIMITЪR
Никакие филтри ,все оригинално :crazy:


Top
 Profile  
 
 
PostPosted: 07 Apr 2013 
Хиппей (support team)
User avatar
Joined: 30 Jul 2007
Posts: 106389
Lоcаtion: Киев (Kyiv, UA)
Age: 45
Name: Andrey
А кеды за 850 левiв тоже оригинално? :fingal: :esel: :esel: :esel: :true:

Image

http://webcache.googleusercontent.com/s ... ru&ct=clnk

_________________


Top
 Profile E-mail  
 
Display posts from previous:  Sort by  
Post new topic Reply to topic  [ 37 posts ]  Go to page Previous  1, 2

All times are UTC + 3 hours


Who is online

Users browsing this forum: No registered users and 1 guest


You cannot post new topics in this forum
You cannot reply to topics in this forum
You cannot edit your posts in this forum
You cannot delete your posts in this forum
You cannot post attachments in this forum

Search for:
Яндекс.Метрика
Powered by phpBB © 2000, 2002, 2005, 2007 phpBB Group