\m/ 80's metal \m/

Информационно-аналитический форум "80 см пыли" (In Search We Trust) "У нас никто никуда не спешит"
Железнодорожная биржа - RailAgent
It is currently 20 May 2018

All times are UTC + 3 hours

Spoiler
Chat - temporary registration for foreign users (please leave your application here)







Post new topic Reply to topic  [ 11 posts ] 
Author Message
 
PostPosted: 24 Sep 2011 
Работнечег
User avatar
Joined: 28 Aug 2007
Posts: 5264
Lоcаtion: г. Москва
Age: 29
Name: Дима
Attachment:
Front.jpg
Front.jpg [ 691.28 KiB | Viewed 116 times ]


Style: Heavy Metal
Year: 1982 (Re-Released In ???)
Label: Thunderload Records (Bootleg)
Country: Sweden
Bitrate: flac + cue + log + covers
Size: 421 Mb

Line-Up:
Syrbjorn Wahlquist - Drums, Vocals
Tarbjorn Ragnesjo - Bass, Vocals
Eddy Malm - Guitar, Vocals
Ragne Wahlquist - Guitar


Tracklist:
01. Heavy Metal Angels (In Metal & Leather)
02. Might For Right
03. Something New
04. Bleeding Streets
05. The Guitar Is My Sword
06. Still There Is Time
07. Traveller
08. Little Lies
09. Take Me Away
10. Trespasser

LOG
Exact Audio Copy V0.99 prebeta 5 from 4. May 2009

EAC extraction logfile from 30. August 2011, 14:09

Heavy Load / Death Or Glory

Used drive : PIONEER DVD-RW DVR-116D Adapter: 0 ID: 0

Read mode : Secure
Utilize accurate stream : Yes
Defeat audio cache : Yes
Make use of C2 pointers : No

Read offset correction : 96
Overread into Lead-In and Lead-Out : No
Fill up missing offset samples with silence : Yes
Delete leading and trailing silent blocks : No
Null samples used in CRC calculations : Yes
Used interface : Native Win32 interface for Win NT & 2000

Used output format : User Defined Encoder
Selected bitrate : 32 kBit/s
Quality : High
Add ID3 tag : No
Command line compressor : C:\Program Files\Exact Audio Copy\Flac\flac.exe
Additional command line options : -6 -V %s


TOC of the extracted CD

Track | Start | Length | Start sector | End sector
---------------------------------------------------------
1 | 0:00.00 | 6:43.44 | 0 | 30268
2 | 6:43.44 | 3:21.16 | 30269 | 45359
3 | 10:04.60 | 6:01.04 | 45360 | 72438
4 | 16:05.64 | 5:23.47 | 72439 | 96710
5 | 21:29.36 | 4:21.63 | 96711 | 116348
6 | 25:51.24 | 9:16.20 | 116349 | 158068
7 | 35:07.44 | 6:13.13 | 158069 | 186056
8 | 41:20.57 | 9:15.65 | 186057 | 227746
9 | 50:36.47 | 4:21.32 | 227747 | 247353
10 | 54:58.04 | 3:47.13 | 247354 | 264391


Range status and errors

Selected range

Filename D:\Музыка\Lossless\Heavy Load - Death Or Glory (1982)(Re-Released)\Heavy Load - Death Or Glory.wav

Peak level 89.1 %
Range quality 100.0 %
Copy CRC 99CC57E2
Copy OK

No errors occurred


AccurateRip summary

Track 1 not present in database
Track 2 not present in database
Track 3 not present in database
Track 4 not present in database
Track 5 not present in database
Track 6 not present in database
Track 7 not present in database
Track 8 not present in database
Track 9 not present in database
Track 10 not present in database

None of the tracks are present in the AccurateRip database

End of status report

CUE
REM GENRE "Heavy Metal"
REM DATE 1982
REM DISCID 780DC50A
REM COMMENT "ExactAudioCopy v0.99pb5"
PERFORMER "Heavy Load"
TITLE "Death Or Glory"
FILE "Heavy Load - Death Or Glory.flac" WAVE
TRACK 01 AUDIO
TITLE "Heavy Metal Angels (In Metal & Leather)"
PERFORMER "Heavy Load"
FLAGS DCP
INDEX 01 00:00:00
TRACK 02 AUDIO
TITLE "Might For Right"
PERFORMER "Heavy Load"
FLAGS DCP
INDEX 00 06:41:44
INDEX 01 06:43:44
TRACK 03 AUDIO
TITLE "Something New"
PERFORMER "Heavy Load"
FLAGS DCP
INDEX 00 10:02:60
INDEX 01 10:04:60
TRACK 04 AUDIO
TITLE "Bleeding Streets"
PERFORMER "Heavy Load"
FLAGS DCP
INDEX 00 16:03:64
INDEX 01 16:05:64
TRACK 05 AUDIO
TITLE "The Guitar Is My Sword"
PERFORMER "Heavy Load"
FLAGS DCP
INDEX 00 21:27:36
INDEX 01 21:29:36
TRACK 06 AUDIO
TITLE "Still There Is Time"
PERFORMER "Heavy Load"
FLAGS DCP
INDEX 00 25:49:24
INDEX 01 25:51:24
TRACK 07 AUDIO
TITLE "Traveller"
PERFORMER "Heavy Load"
FLAGS DCP
INDEX 00 35:05:44
INDEX 01 35:07:44
TRACK 08 AUDIO
TITLE "Little Lies"
PERFORMER "Heavy Load"
FLAGS DCP
INDEX 00 41:18:57
INDEX 01 41:20:57
TRACK 09 AUDIO
TITLE "Take Me Away"
PERFORMER "Heavy Load"
FLAGS DCP
INDEX 00 50:34:47
INDEX 01 50:36:47
TRACK 10 AUDIO
TITLE "Trespasser"
PERFORMER "Heavy Load"
FLAGS DCP
INDEX 00 54:56:04
INDEX 01 54:58:04

Spectrum
Image


Narod.Ru

Несмотря на то, что на заднике заявлено 11 песен, на диске их 10. Нет Daybreak Ecstasy. Бутлег кажется середины 90-х годов и кстати довольно редкий сейчас))


Top
 Profile E-mail  
 
 
PostPosted: 24 Sep 2011 
Хиппей (support team)
User avatar
Joined: 30 Jul 2007
Posts: 103471
Lоcаtion: Киев (Kyiv, UA)
Age: 44
Name: Andrey
:thanx:
mirror: MultiUp l Narod

_________________


Top
 Profile E-mail  
 
 
PostPosted: 25 Sep 2011 
консэрваторъ
Joined: 11 Aug 2007
Posts: 15324
Lоcаtion: Псков
Age: 44
Name: Сергей
Дима, вставь картинку пожалуйста в тело сообщения...

_________________
THRASH 'EM ALL


Top
 Profile E-mail  
 
 
PostPosted: 25 Sep 2011 
Работнечег
User avatar
Joined: 28 Aug 2007
Posts: 5264
Lоcаtion: г. Москва
Age: 29
Name: Дима
поменял :oops:


Top
 Profile E-mail  
 
 
PostPosted: 26 Sep 2011 
парень в очёчкXаX!
User avatar
Joined: 15 Aug 2007
Posts: 2353
Lоcаtion: UK'раина, г. ЛондАн Би-Би-Си
Age: 47
Name: Сергей
church wrote:
Несмотря на то, что на заднике заявлено 11 песен, на диске их 10. Нет Daybreak Ecstasy

Столько лет прошло, а ты, Дмитрий кое-чего не заметил (вернее просто не углублялся в теММу;) ), что трек Daybreak Ecstasy таки у тебя есть, нету трека The Guitar Is My Sword - он прописан под №5 за заднике :dance:
думаю инфа об этом диске будет тебе интересна, сравни еще раз треклист своего диска с тем, который я написал ниже:

1 - Heavy Metal Angels (In Metal & Leather)
2 - Might For Right
3 - Something New
4 - Bleeding Streets
5 - Still There Is Time
6 - Traveller
7 - Little Lies
8 - Daybreak Ecstasy
9 - Take Me Away
10 - Trespasser

пы-пс у самого уже было так не раз, имея диск и (не углубляясь) думаешь одно, и только через десяток лет по совершенной случайности узнаешь, что там совсем другое в РЕАЛИИ!!!!
самое интересное, что при всём этом получаешь положительные эмоции.., ну и т.д. :crazy:


Top
 Profile  
 
 
PostPosted: 22 Oct 2011 
Работнечег
User avatar
Joined: 28 Aug 2007
Posts: 5264
Lоcаtion: г. Москва
Age: 29
Name: Дима
Спасибо, Сергей) многократно слушал версию в мп3, до того как диск купил. А когда уже рип выкладывал, то по памяти песни определял, альбом-то все равно классный)


Top
 Profile E-mail  
 
 
PostPosted: 22 Oct 2011 
Навечно изгнанный
User avatar
Joined: 04 May 2009
Posts: 485
Lоcаtion: Загорск (Сергиев Посад)
Age: 46
Name: Евгений
И смысл от этого бутлега?
Из "осла" вытянул этот же альбом, японского издания с 11 треками (APE, CUE, LOG плюс сканы) и "весит" всё это безобразие 330 мешков.
Порядок песен таков:
01. Heavy Metal Angels (In Metal & Leather)
02. Might For Right
03. Something New
04. Bleeding Streets
05. The Guitar Is My Sword
06. Take Me Away
07. Trespasser
08. Still There Is Time
09. Traveller
10. Little Lies
11. Daybreak Ecstasy

Если нужно, могу подогнать.

_________________
"$? -Это не деньги! Рубли давайте!"


Top
 Profile  
 
 
PostPosted: 22 Oct 2011 
Хиппей (support team)
User avatar
Joined: 30 Jul 2007
Posts: 103471
Lоcаtion: Киев (Kyiv, UA)
Age: 44
Name: Andrey
Жень, ты не шаришь :nunu: Здесь народ собирает всё - от бутлегов, до официальных пираток =))
И чем корявее альбом. тем трушнее =)

Если можно, залей и свой вариант :dance:

_________________


Top
 Profile E-mail  
 
 
PostPosted: 22 Oct 2011 
Навечно изгнанный
User avatar
Joined: 04 May 2009
Posts: 485
Lоcаtion: Загорск (Сергиев Посад)
Age: 46
Name: Евгений
Scatterbrain wrote:
И чем корявее альбом. тем трушнее =)

Андрей, это я уже давно понял)))))
Кому говорить СПАСИБО! за рип я не знаю :vic:
Narod

_________________
"$? -Это не деньги! Рубли давайте!"


Top
 Profile  
 
 
PostPosted: 01 Nov 2011 
Хиппей (support team)
User avatar
Joined: 30 Jul 2007
Posts: 103471
Lоcаtion: Киев (Kyiv, UA)
Age: 44
Name: Andrey
Спасибо! :thanx:

_________________


Top
 Profile E-mail  
 
 
PostPosted: 12 Dec 2011 
Хиппей (support team)
User avatar
Joined: 30 Jul 2007
Posts: 103471
Lоcаtion: Киев (Kyiv, UA)
Age: 44
Name: Andrey
church wrote:
Несмотря на то, что на заднике заявлено 11 песен, на диске их 10. Нет Daybreak Ecstasy.

Вариант с 11-ю трэками нужен? От King Records - Japan :oops:

:arrow: viewtopic.php?f=181&t=10309 :losik:

_________________


Top
 Profile E-mail  
 
Display posts from previous:  Sort by  
Post new topic Reply to topic  [ 11 posts ] 

All times are UTC + 3 hours


Who is online

Users browsing this forum: No registered users and 2 guests


You cannot post new topics in this forum
You cannot reply to topics in this forum
You cannot edit your posts in this forum
You cannot delete your posts in this forum
You cannot post attachments in this forum

Search for:
Яндекс.Метрика
Powered by phpBB © 2000, 2002, 2005, 2007 phpBB Group