\m/ 80's metal \m/

Информационно-аналитический форум "80 см пыли" (In Search We Trust) "У нас никто никуда не спешит"
Железнодорожная биржа - RailAgent
It is currently 22 May 2018

All times are UTC + 3 hours

Spoiler
Chat - temporary registration for foreign users (please leave your application here)







Post new topic Reply to topic  [ 20 posts ] 
Author Message
 
PostPosted: 07 Sep 2011 
Хиппей (support team)
User avatar
Joined: 30 Jul 2007
Posts: 103511
Lоcаtion: Киев (Kyiv, UA)
Age: 44
Name: Andrey
The Handsome Beasts - 1981 - Beastiality (remastered 1996)

Image Image

Genre: NWOBHM
Location: England
Format: ape+cue+log+scans
Size: 391 Mb


Line-up:

Garry Dalway - vocals
Steven Hough - bass
Pete Malbasa - drums
Paul Robins - guitars

1. Sweeties - 03:37
2. David's Song - 03:11
3. Breaker - 02:24
4. One In A Crowd - 03:29
5. Local Heroes - 03:19
6. Another Day - 08:30
7. Crazy - 03:24
8. Tearing Me Apart - 04:12
9. High Speed - 04:43
10. The Mark Of The Beast (bonus) - 03:45
11. All Riot Now (bonus) - 04:22
12. Sweeties (bonus) - 03:40
13. You're On Your Own (bonus) - 05:00

TPT: 53:43

Quote:
The Remaster by British Steel ( Catalogue # CD METAL 5 ) , in 1996, include 4 Bonus Track*


Обычный такой NWOBHM. Но не тягучий и не нудный. Местами залазят в хэви, местами еще не вылезли из хард-рока БлэкСэббэтовского разлива в перемешку с ДипПурпле.
Хорошая работа. Добротная, но не более того...

6/10

На обложке вокалист группы (r.i.p.) со свинкой :dance:

MultiUp l Narod

Источник: не помню, нашёл у себя на винте :vic: Если автор узнает по логу свой рип, просьба сообщить об этом, и я с удовольствием отправлю музыкантам и лэйблу его данные.
И спасибо за рип :thanx:

log
Отчёт EAC об извлечении, выполненном 2. июля 2011, 15:10 для диска:
The Handsome Beasts / Beastiality

Дисковод: TSSTcorpCDDVDW SH-S223C Adapter: 1 ID: 0
Режим чтения: Достоверный (C2: нет, Точный поток: да, Отключение кэша: да)
Коррекция смещения при чтении: 697
Способность читать области Lead-in и Lead-out : Нет

Выходной формат: Внутренние WAV-операции
44.100 Гц; 16 бит; стерео

Другие параметры:
Заполнение пропущенных сэмплов тишиной : Да
Удаление блоков с тишиной в начале и конце : Нет
Установленный внешний ASPI-интерфейс


Характеристики диапазона извлечения и сообщения об ошибках
Выбранный диапазон
Имя файла D:\Downloads\Новая папка\The Handsome Beasts - Beastiality.wav

Пиковый уровень 96.8 %
Качество диапазона 100.0 %
CRC E5A02F2E
Копирование... OK

Ошибок не произошло

Конец отчёта


cue
REM GENRE "Heavy Metal"
REM DATE 1981
REM DISCID AF0C970D
REM COMMENT "ExactAudioCopy v0.95b4"
PERFORMER "The Handsome Beasts"
TITLE "Beastiality"
FILE "The Handsome Beasts - Beastiality.wav" WAVE
TRACK 01 AUDIO
TITLE "Sweeties"
PERFORMER "The Handsome Beasts"
INDEX 00 00:00:00
INDEX 01 00:00:32
TRACK 02 AUDIO
TITLE "David's Song"
PERFORMER "The Handsome Beasts"
INDEX 01 03:37:57
TRACK 03 AUDIO
TITLE "Breaker"
PERFORMER "The Handsome Beasts"
INDEX 01 06:48:67
TRACK 04 AUDIO
TITLE "One in a Crowd"
PERFORMER "The Handsome Beasts"
INDEX 01 09:13:50
TRACK 05 AUDIO
TITLE "Local Heroes"
PERFORMER "The Handsome Beasts"
INDEX 01 12:42:65
TRACK 06 AUDIO
TITLE "Another Day"
PERFORMER "The Handsome Beasts"
INDEX 01 16:02:37
TRACK 07 AUDIO
TITLE "Crazy"
PERFORMER "The Handsome Beasts"
INDEX 01 24:33:35
TRACK 08 AUDIO
TITLE "Tearing Me Apart"
PERFORMER "The Handsome Beasts"
INDEX 01 27:57:55
TRACK 09 AUDIO
TITLE "High Speed"
PERFORMER "The Handsome Beasts"
INDEX 00 32:09:32
INDEX 01 32:10:02
TRACK 10 AUDIO
TITLE "Mark of the Beast (bonus)"
PERFORMER "The Handsome Beasts"
INDEX 00 36:51:45
INDEX 01 36:53:12
TRACK 11 AUDIO
TITLE "All Riot Now (bonus)"
PERFORMER "The Handsome Beasts"
INDEX 00 40:37:32
INDEX 01 40:39:07
TRACK 12 AUDIO
TITLE "Sweeties (single version) (bonus)"
PERFORMER "The Handsome Beasts"
INDEX 00 45:00:20
INDEX 01 45:01:67
TRACK 13 AUDIO
TITLE "You're On Your Own (bonus)"
PERFORMER "The Handsome Beasts"
INDEX 00 48:41:20
INDEX 01 48:42:62


spectrum
Image

_________________


Top
 Profile E-mail  
 
 
PostPosted: 07 Sep 2011 
Доктор энтомологии
User avatar
Joined: 22 Jan 2009
Posts: 9022
Lоcаtion: Даугавпилс
Age: 43
Name: Алексей
:true: :true: :true: Прелесть какая.. с большим удовольствием ознакаливаюсь с мп3 :oops:


Top
 Profile  
 
 
PostPosted: 08 Sep 2011 
Хиппей (support team)
User avatar
Joined: 30 Jul 2007
Posts: 103511
Lоcаtion: Киев (Kyiv, UA)
Age: 44
Name: Andrey
http://www.google.com/search?q=The+Hand ... iality+mp3 :pardon:

_________________


Top
 Profile E-mail  
 
 
PostPosted: 08 Sep 2011 
Доктор энтомологии
User avatar
Joined: 22 Jan 2009
Posts: 9022
Lоcаtion: Даугавпилс
Age: 43
Name: Алексей
Да, там этого масса, всё ОК, не просил ничего :fingal:


Top
 Profile  
 
 
PostPosted: 08 Sep 2011 
Хиппей (support team)
User avatar
Joined: 30 Jul 2007
Posts: 103511
Lоcаtion: Киев (Kyiv, UA)
Age: 44
Name: Andrey
Entomologist wrote:
с большим удовольствием ознакаливаюсь с мп3

Ой, я только сейчас понял выделенное слово-фразу... :oops:
Чёт вчера сонным прочёл как "ознакомился бы в мп3" :fingal:

_________________


Top
 Profile E-mail  
 
 
PostPosted: 08 Sep 2011 
А может смените мне статус?..
User avatar
Joined: 30 Aug 2009
Posts: 824
Lоcаtion: Ачинск, Красноярский край
Age: 32
Name: Стас
:thanx:


Top
 Profile E-mail  
 
 
PostPosted: 08 Sep 2011 
Доктор энтомологии
User avatar
Joined: 22 Jan 2009
Posts: 9022
Lоcаtion: Даугавпилс
Age: 43
Name: Алексей
Спасибо еще раз. Просто шедевр как по мне :meloman: :true: :true: :true: Слушаю не отрываясь вторые сутки. Да, интересная такая хрень на стыке старого харда vs tradional heavy + NWBHM, с бОльшим уклоном в первое


Top
 Profile  
 
 
PostPosted: 23 Sep 2011 
Работнечег
User avatar
Joined: 28 Aug 2007
Posts: 5264
Lоcаtion: г. Москва
Age: 29
Name: Дима
Ага, альбом отличный, несмотря на обложку :crazy:


Top
 Profile E-mail  
 
 
PostPosted: 23 Sep 2011 
Хиппей (support team)
User avatar
Joined: 30 Jul 2007
Posts: 103511
Lоcаtion: Киев (Kyiv, UA)
Age: 44
Name: Andrey
Кста, точняк, ща запощу обложку в любимые :dance:

_________________


Top
 Profile E-mail  
 
 
PostPosted: 10 Nov 2014 
Пионэръ
User avatar
Joined: 28 Mar 2013
Posts: 12
Lоcаtion: UK
Name: Keith
Links don't lead anywhere :(


Top
 Profile E-mail  
 
 
PostPosted: 10 Nov 2014 
Old Time Rock`n`Roll
User avatar
Joined: 23 Jun 2008
Posts: 3335
Lоcаtion: г.Ульяновск
Age: 39
Name: Константин
... and here comes The Handsome Beast-81...


Last edited by oldrocker on 10 Nov 2014, edited 1 time in total.

Top
 Profile  
 
 
PostPosted: 10 Nov 2014 
Хиппей (support team)
User avatar
Joined: 30 Jul 2007
Posts: 103511
Lоcаtion: Киев (Kyiv, UA)
Age: 44
Name: Andrey
Quote:
Ничего не найдено
Возможно, владелец удалил файлы или закрыл к ним доступ.
А может быть, вам досталась ссылка с опечаткой

:thanx:
mirror: Narod l M-Cloud

Костя, включи ноут, плиз :dance:

_________________


Top
 Profile E-mail  
 
 
PostPosted: 10 Nov 2014 
Old Time Rock`n`Roll
User avatar
Joined: 23 Jun 2008
Posts: 3335
Lоcаtion: г.Ульяновск
Age: 39
Name: Константин
Поправил :thanx:
Хрень какая-то прицепилась)


Top
 Profile  
 
 
PostPosted: 10 Nov 2014 
Пионэръ
User avatar
Joined: 28 Mar 2013
Posts: 12
Lоcаtion: UK
Name: Keith


Thanks man :thanx: If anyone needs any lossless UK material let me know and I'll upload it if I have it.


Top
 Profile E-mail  
 
 
PostPosted: 10 Nov 2014 
Доктор энтомологии
User avatar
Joined: 22 Jan 2009
Posts: 9022
Lоcаtion: Даугавпилс
Age: 43
Name: Алексей
:pavlik:


Top
 Profile  
 
 
PostPosted: 10 Nov 2014 
Хиппей (support team)
User avatar
Joined: 30 Jul 2007
Posts: 103511
Lоcаtion: Киев (Kyiv, UA)
Age: 44
Name: Andrey
Поправил :thanx:
Хрень какая-то прицепилась)

:thanx: Явно от поросятки :vic:

_________________


Top
 Profile E-mail  
 
 
PostPosted: 10 Nov 2014 
Old Time Rock`n`Roll
User avatar
Joined: 23 Jun 2008
Posts: 3335
Lоcаtion: г.Ульяновск
Age: 39
Name: Константин
И чтоб такое спросить-то у него?
Может McMasters Death? Вдруг есть ))


Top
 Profile  
 
 
PostPosted: 10 Nov 2014 
Хиппей (support team)
User avatar
Joined: 30 Jul 2007
Posts: 103511
Lоcаtion: Киев (Kyiv, UA)
Age: 44
Name: Andrey
Конечно есть :crazy: У нас и скачал :lloo:

_________________


Top
 Profile E-mail  
 
 
PostPosted: 10 Nov 2014 
Доктор энтомологии
User avatar
Joined: 22 Jan 2009
Posts: 9022
Lоcаtion: Даугавпилс
Age: 43
Name: Алексей
А кста, мож в угадай мелодию, Елена нам ИХ самих и подкинула :shok: А то вкрадывается какое-то такое мистическое чуйство


Top
 Profile  
 
 
PostPosted: 10 Nov 2014 
Хиппей (support team)
User avatar
Joined: 30 Jul 2007
Posts: 103511
Lоcаtion: Киев (Kyiv, UA)
Age: 44
Name: Andrey
Entomologist wrote:
А то вкрадывается какое-то такое мистическое чуйство

Не здря я про Марципан Фэйс вспоминал :umnik:

_________________


Top
 Profile E-mail  
 
Display posts from previous:  Sort by  
Post new topic Reply to topic  [ 20 posts ] 

All times are UTC + 3 hours


Who is online

Users browsing this forum: No registered users and 3 guests


You cannot post new topics in this forum
You cannot reply to topics in this forum
You cannot edit your posts in this forum
You cannot delete your posts in this forum
You cannot post attachments in this forum

Search for:
Яндекс.Метрика
Powered by phpBB © 2000, 2002, 2005, 2007 phpBB Group