\m/ 80's metal \m/

Информационно-аналитический форум "80 см пыли" (In Search We Trust) "У нас никто никуда не спешит"
Me For You - http://me-4u.com
It is currently 09 Aug 2020

All times are UTC + 3 hours

Spoiler
Chat - temporary registration for foreign users (please leave your application here)







Post new topic Reply to topic  [ 9 posts ] 
Author Message
 
PostPosted: 03 Jul 2020 
Работнечег
User avatar
Joined: 28 Aug 2007
Posts: 6357
Lоcаtion: г. Москва
Age: 31
Name: Дима
Hocculta - Warning Games (1984)(Remastered In 2005)

Image

Year: 2005
Label: A&R Productions
Country: Italy
Bitrate: Flac + Cue + Log + Covers
Size: 287 Mb

Line-Up:
Massimo Lodini - Vocals
Tony Chiarito - Bass
Floriano Buratti - Drums
Marco Bona - Guitars
Luca Trabanelli - Guitars


Tracklist:
1. Intro 00:58
2. We'll Play Again 03:22
3. Owner of Earth 03:32
4. Total Confusion 04:37
5. Dream of Death 05:33
6. Warning Games 04:13
7. Entity 04:01
8. We Give the Power 05:59
9. Witches' Chant 05:32

LOG
Exact Audio Copy V1.3 from 2. September 2016

EAC extraction logfile from 9. May 2020, 15:03

Hocculta / Warning Games (Remastered In 2005)

Used drive : ASUS DRW-2014L1 Adapter: 1 ID: 0

Read mode : Secure
Utilize accurate stream : Yes
Defeat audio cache : Yes
Make use of C2 pointers : No

Read offset correction : 6
Overread into Lead-In and Lead-Out : No
Fill up missing offset samples with silence : Yes
Delete leading and trailing silent blocks : No
Null samples used in CRC calculations : Yes
Used interface : Native Win32 interface for Win NT & 2000

Used output format : User Defined Encoder
Selected bitrate : 768 kBit/s
Quality : High
Add ID3 tag : No
Command line compressor : C:\Program Files (x86)\Exact Audio Copy\FLAC\FLAC.EXE
Additional command line options : -6 -V -T "ARTIST=%artist%" -T "TITLE=%title%" -T "ALBUM=%albumtitle%" -T "DATE=%year%" -T "TRACKNUMBER=%tracknr%" -T "GENRE=%genre%" -T "COMMENT=%comment%" -T "BAND=%albuminterpret%" -T "ALBUMARTIST=%albuminterpret%" -T "COMPOSER=%composer%" %haslyrics%--tag-from-file=LYRICS="%lyricsfile%"%haslyrics% -T "DISCNUMBER=%cdnumber%" -T "TOTALDISCS=%totalcds%" -T "TOTALTRACKS=%numtracks%" %hascover%--picture="%coverfile%"%hascover% %source% -o %dest%


TOC of the extracted CD

Track | Start | Length | Start sector | End sector
---------------------------------------------------------
1 | 0:00.00 | 1:00.00 | 0 | 4499
2 | 1:00.00 | 3:23.05 | 4500 | 19729
3 | 4:23.05 | 3:32.45 | 19730 | 35674
4 | 7:55.50 | 4:37.70 | 35675 | 56519
5 | 12:33.45 | 5:33.37 | 56520 | 81531
6 | 18:07.07 | 4:13.58 | 81532 | 100564
7 | 22:20.65 | 4:01.67 | 100565 | 118706
8 | 26:22.57 | 5:59.60 | 118707 | 145691
9 | 32:22.42 | 5:32.35 | 145692 | 170626


Range status and errors

Selected range

Filename D:\Lossless Rip\Hocculta - Warning Games (1984)(Remastered In 2005)\Hocculta - Warning Games (Remastered In 2005).wav

Peak level 100.0 %
Extraction speed 7.5 X
Range quality 100.0 %
Copy CRC 49ED503C
Copy OK

No errors occurred

End of status report

CUE
REM GENRE "Heavy Metal"
REM DATE 1984
REM DISCID 7A08E309
REM COMMENT "ExactAudioCopy v1.3"
PERFORMER "Hocculta"
TITLE "Warning Games (Remastered In 2005)"
REM COMPOSER ""
FILE "Hocculta - Warning Games (Remastered In 2005).flac" WAVE
TRACK 01 AUDIO
TITLE "Intro"
PERFORMER "Hocculta"
REM COMPOSER ""
INDEX 01 00:00:00
TRACK 02 AUDIO
TITLE "We'll Play Again"
PERFORMER "Hocculta"
REM COMPOSER ""
INDEX 01 01:00:00
TRACK 03 AUDIO
TITLE "Owner Of Earth"
PERFORMER "Hocculta"
REM COMPOSER ""
INDEX 01 04:23:05
TRACK 04 AUDIO
TITLE "Total Confusion"
PERFORMER "Hocculta"
REM COMPOSER ""
INDEX 01 07:55:50
TRACK 05 AUDIO
TITLE "Dream Of Death"
PERFORMER "Hocculta"
REM COMPOSER ""
INDEX 01 12:33:45
TRACK 06 AUDIO
TITLE "Warning Games"
PERFORMER "Hocculta"
REM COMPOSER ""
INDEX 01 18:07:07
TRACK 07 AUDIO
TITLE "Entity"
PERFORMER "Hocculta"
REM COMPOSER ""
INDEX 01 22:20:65
TRACK 08 AUDIO
TITLE "We Give The Power"
PERFORMER "Hocculta"
REM COMPOSER ""
INDEX 01 26:22:57
TRACK 09 AUDIO
TITLE "Witches' Chant"
PERFORMER "Hocculta"
REM COMPOSER ""
INDEX 01 32:22:42


Yadi

Бодрый хэви от итальянцев, но довольно легковесный. Понравились Owner of Earth, Dream Of Death, Warning Games, но в целом все песни неплохие, примерно на одном уровне, хитов не хватает релизу. Звучит ремастер хорошо, но оригинал не слушал с винила. На трэкере кстати рип с винила есть.


Top
 Profile E-mail  
 
 
PostPosted: 03 Jul 2020 
Я набрал 1000 сообщений!
Joined: 24 Oct 2009
Posts: 2384
Lоcаtion: Оренбург
Age: 56
Name: Юра
:thanx:

_________________
:dash: I am happy!


Top
 Profile E-mail  
 
 
PostPosted: 03 Jul 2020 
Анатолий
User avatar
Joined: 18 Oct 2008
Posts: 3861
Lоcаtion: Армавир
Age: 43
Name: Анатолий
:thanx: :true:


Top
 Profile E-mail  
 
 
PostPosted: 04 Jul 2020 
Прокъмитолист
User avatar
Joined: 12 Aug 2007
Posts: 6755
Lоcаtion: Санктъ-Петербуркъ
Age: 52
Name: Олекъ
:thanx:

_________________
прокъметол - это музыко, от которово есть прок (ы)


Top
 Profile  
 
 
PostPosted: 28 Jul 2020 
Работнечег
User avatar
Joined: 28 Aug 2007
Posts: 6357
Lоcаtion: г. Москва
Age: 31
Name: Дима
Hocculta - Back In The Dark (1988)(Remastered In 2009)

Image

Year: 1988
Label: Metalmaster
Country: Italy
Bitrate: Flac + Cue + Log + Covers
Size: 331 Mb

Tracklist:
1. Back in the Dark 04:21
2. Angel of Death 04:24
3. Tempter 03:36
4. Dirty Illusion 07:01
5. Along the River of Memories 02:13
6. Haze Inside 04:16
7. Lonely Knights 05:23
8. Supreme Sacrifice 03:58
9. Shake Now 05:02

LOG
Exact Audio Copy V1.3 from 2. September 2016

EAC extraction logfile from 9. May 2020, 15:12

Hocculta / Back In The Dark (Remastered)

Used drive : ASUS DRW-2014L1 Adapter: 1 ID: 0

Read mode : Secure
Utilize accurate stream : Yes
Defeat audio cache : Yes
Make use of C2 pointers : No

Read offset correction : 6
Overread into Lead-In and Lead-Out : No
Fill up missing offset samples with silence : Yes
Delete leading and trailing silent blocks : No
Null samples used in CRC calculations : Yes
Used interface : Native Win32 interface for Win NT & 2000

Used output format : User Defined Encoder
Selected bitrate : 768 kBit/s
Quality : High
Add ID3 tag : No
Command line compressor : C:\Program Files (x86)\Exact Audio Copy\FLAC\FLAC.EXE
Additional command line options : -6 -V -T "ARTIST=%artist%" -T "TITLE=%title%" -T "ALBUM=%albumtitle%" -T "DATE=%year%" -T "TRACKNUMBER=%tracknr%" -T "GENRE=%genre%" -T "COMMENT=%comment%" -T "BAND=%albuminterpret%" -T "ALBUMARTIST=%albuminterpret%" -T "COMPOSER=%composer%" %haslyrics%--tag-from-file=LYRICS="%lyricsfile%"%haslyrics% -T "DISCNUMBER=%cdnumber%" -T "TOTALDISCS=%totalcds%" -T "TOTALTRACKS=%numtracks%" %hascover%--picture="%coverfile%"%hascover% %source% -o %dest%


TOC of the extracted CD

Track | Start | Length | Start sector | End sector
---------------------------------------------------------
1 | 0:00.00 | 4:20.61 | 0 | 19560
2 | 4:20.61 | 4:24.70 | 19561 | 39430
3 | 8:45.56 | 3:38.34 | 39431 | 55814
4 | 12:24.15 | 7:14.38 | 55815 | 88402
5 | 19:38.53 | 2:13.33 | 88403 | 98410
6 | 21:52.11 | 4:23.38 | 98411 | 118173
7 | 26:15.49 | 5:19.11 | 118174 | 142109
8 | 31:34.60 | 4:00.05 | 142110 | 160114
9 | 35:34.65 | 5:03.38 | 160115 | 182877


Range status and errors

Selected range

Filename D:\Lossless Rip\Hocculta - Back In The Dark (1988)(Remastered In 20xx)\Hocculta - Back In The Dark (Remastered).wav

Peak level 99.9 %
Extraction speed 8.2 X
Range quality 100.0 %
Copy CRC 8A7CA1CD
Copy OK

No errors occurred

End of status report

CUE
REM GENRE "Heavy Metal"
REM DATE 1988
REM DISCID 76098609
REM COMMENT "ExactAudioCopy v1.3"
PERFORMER "Hocculta"
TITLE "Back In The Dark (Remastered)"
REM COMPOSER ""
FILE "Hocculta - Back In The Dark (Remastered).flac" WAVE
TRACK 01 AUDIO
TITLE "Back In The Dark"
PERFORMER "Hocculta"
REM COMPOSER ""
INDEX 01 00:00:00
TRACK 02 AUDIO
TITLE "Angel Of Death"
PERFORMER "Hocculta"
REM COMPOSER ""
INDEX 01 04:20:61
TRACK 03 AUDIO
TITLE "Tempter"
PERFORMER "Hocculta"
REM COMPOSER ""
INDEX 01 08:45:56
TRACK 04 AUDIO
TITLE "Dirty Illusion"
PERFORMER "Hocculta"
REM COMPOSER ""
INDEX 01 12:24:15
TRACK 05 AUDIO
TITLE "Along The River Of Memories"
PERFORMER "Hocculta"
REM COMPOSER ""
INDEX 01 19:38:53
TRACK 06 AUDIO
TITLE "Haze Inside"
PERFORMER "Hocculta"
REM COMPOSER ""
INDEX 01 21:52:11
TRACK 07 AUDIO
TITLE "Lonely Knights"
PERFORMER "Hocculta"
REM COMPOSER ""
INDEX 01 26:15:49
TRACK 08 AUDIO
TITLE "Supreme Sacrifice"
PERFORMER "Hocculta"
REM COMPOSER ""
INDEX 01 31:34:60
TRACK 09 AUDIO
TITLE "Shake Now"
PERFORMER "Hocculta"
REM COMPOSER ""
INDEX 01 35:34:65


Yadi

Отличный задорный альбом, рекомендую. Понравился больше первого.


Top
 Profile E-mail  
 
 
PostPosted: 28 Jul 2020 
Анатолий
User avatar
Joined: 18 Oct 2008
Posts: 3861
Lоcаtion: Армавир
Age: 43
Name: Анатолий
:thanx: :true:


Top
 Profile E-mail  
 
 
PostPosted: 28 Jul 2020 
Я набрал 1000 сообщений!
Joined: 24 Oct 2009
Posts: 2384
Lоcаtion: Оренбург
Age: 56
Name: Юра
:thanx:

_________________
:dash: I am happy!


Top
 Profile E-mail  
 
 
PostPosted: 28 Jul 2020 
Прокъмитолист
User avatar
Joined: 12 Aug 2007
Posts: 6755
Lоcаtion: Санктъ-Петербуркъ
Age: 52
Name: Олекъ
:thanx:

_________________
прокъметол - это музыко, от которово есть прок (ы)


Top
 Profile  
 
 
PostPosted: 30 Jul 2020 
спирт 100%
User avatar
Joined: 22 Sep 2008
Posts: 4579
Age: 49
Name: Саня
:thanx: Спасибо!


Top
 Profile  
 
Display posts from previous:  Sort by  
Post new topic Reply to topic  [ 9 posts ] 

All times are UTC + 3 hours


Who is online

Users browsing this forum: No registered users and 1 guest


You cannot post new topics in this forum
You cannot reply to topics in this forum
You cannot edit your posts in this forum
You cannot delete your posts in this forum
You cannot post attachments in this forum

Search for:
Яндекс.Метрика
Powered by phpBB © 2000, 2002, 2005, 2007 phpBB Group