\m/ 80's metal \m/

Информационно-аналитический форум "80 см пыли" (In Search We Trust) "У нас никто никуда не спешит"
Me For You - http://me-4u.com
It is currently 17 Feb 2019

All times are UTC + 3 hours

Spoiler
Chat - temporary registration for foreign users (please leave your application here)







Post new topic Reply to topic  [ 3 posts ] 
Author Message
 
PostPosted: 02 Jun 2011 
Хиппей (support team)
User avatar
Joined: 30 Jul 2007
Posts: 110295
Lоcаtion: Киев (Kyiv, UA)
Age: 45
Name: Andrey
Gurd - 2006 - Bang! [flac]

Attachment:
front.jpg
front.jpg [ 2.29 MiB | Viewed 182 times ]


Genre: Groove Thrash
Location: Switzerland
Format: flac+cue+log+covers
Size: 395 Mb


    1. The Grand Deception - 03:37
    2. Bang ! - 03:32
    3. Spirit of Rock - 04:33
    4. Black Money - 05:09
    5. Break the Ban - 04:39
    6. Like a Man - 04:22
    7. Wish - 03:54
    8. Seducer - 05:30
    9. Wise Up - 03:38
    10. Children of the Grave (Black Sabbath cover) - 05:09
    11. Prelude - 01:43
    12. The Storm - 05:18

    TPT: 51:04

MultiUp l Narod

Thanx to Long Metalhead from MMT


log
Exact Audio Copy V0.99 prebeta 4 from 23. January 2008

EAC extraction logfile from 2. October 2009, 21:39

Gurd / Bang!

Used drive : HL-DT-STDVD-RAM GH22NP20 Adapter: 0 ID: 0

Read mode : Secure
Utilize accurate stream : Yes
Defeat audio cache : Yes
Make use of C2 pointers : No

Read offset correction : 102
Overread into Lead-In and Lead-Out : No
Fill up missing offset samples with silence : Yes
Delete leading and trailing silent blocks : No
Null samples used in CRC calculations : Yes
Used interface : Native Win32 interface for Win NT & 2000

Used output format : User Defined Encoder
Selected bitrate : 32 kBit/s
Quality : High
Add ID3 tag : No
Command line compressor : C:\Programme\Exact Audio Copy\Flac\flac.exe
Additional command line options : -6 -V %s


TOC of the extracted CD

Track | Start | Length | Start sector | End sector
---------------------------------------------------------
1 | 0:00.00 | 3:37.00 | 0 | 16274
2 | 3:37.00 | 3:32.35 | 16275 | 32209
3 | 7:09.35 | 4:33.20 | 32210 | 52704
4 | 11:42.55 | 5:09.18 | 52705 | 75897
5 | 16:51.73 | 4:39.15 | 75898 | 96837
6 | 21:31.13 | 4:22.51 | 96838 | 116538
7 | 25:53.64 | 3:54.23 | 116539 | 134111
8 | 29:48.12 | 5:30.29 | 134112 | 158890
9 | 35:18.41 | 3:38.09 | 158891 | 175249
10 | 38:56.50 | 5:09.09 | 175250 | 198433
11 | 44:05.59 | 1:43.48 | 198434 | 206206
12 | 45:49.32 | 5:18.56 | 206207 | 230112


Range status and errors

Selected range

Filename D:\DVD\GURD.[2006].[CD].BANG!.[EAC-FLAC].by Long Metalhead.[MeTaLMaDNeSS.TeaM]\BANG!\Gurd - Bang!.wav

Peak level 100.0 %
Range quality 100.0 %
Copy CRC CBB80357
Copy OK

No errors occurred


AccurateRip summary

Track 1 not present in database
Track 2 not present in database
Track 3 not present in database
Track 4 not present in database
Track 5 not present in database
Track 6 not present in database
Track 7 not present in database
Track 8 not present in database
Track 9 not present in database
Track 10 not present in database
Track 11 not present in database
Track 12 not present in database

None of the tracks are present in the AccurateRip database

End of status report


cue
REM GENRE "Thrash Metal"
REM DATE 2006
REM DISCID 8D0BFC0C
REM COMMENT "ExactAudioCopy v0.99pb4"
PERFORMER "Gurd"
TITLE "Bang!"
FILE "Gurd - Bang!.flac" WAVE
TRACK 01 AUDIO
TITLE "The Grand Deception"
PERFORMER "Gurd"
FLAGS DCP
INDEX 01 00:00:00
TRACK 02 AUDIO
TITLE "Bang!"
PERFORMER "Gurd"
FLAGS DCP
INDEX 01 03:37:00
TRACK 03 AUDIO
TITLE "Spirit Of Rock"
PERFORMER "Gurd"
FLAGS DCP
INDEX 01 07:09:35
TRACK 04 AUDIO
TITLE "Black Money"
PERFORMER "Gurd"
FLAGS DCP
INDEX 01 11:42:55
TRACK 05 AUDIO
TITLE "Break The Ban"
PERFORMER "Gurd"
FLAGS DCP
INDEX 01 16:51:73
TRACK 06 AUDIO
TITLE "Like A Man"
PERFORMER "Gurd"
FLAGS DCP
INDEX 01 21:31:13
TRACK 07 AUDIO
TITLE "Wish"
PERFORMER "Gurd"
FLAGS DCP
INDEX 01 25:53:64
TRACK 08 AUDIO
TITLE "Seducer"
PERFORMER "Gurd"
FLAGS DCP
INDEX 01 29:48:12
TRACK 09 AUDIO
TITLE "Wise Up"
PERFORMER "Gurd"
FLAGS DCP
INDEX 01 35:18:41
TRACK 10 AUDIO
TITLE "Children Of The Grave [Black Sabbath cover]"
PERFORMER "Gurd"
FLAGS DCP
INDEX 01 38:56:50
TRACK 11 AUDIO
TITLE "Prelude (Instrumental)"
PERFORMER "Gurd"
FLAGS DCP
INDEX 01 44:05:59
TRACK 12 AUDIO
TITLE "The Storm"
PERFORMER "Gurd"
FLAGS DCP
INDEX 01 45:49:32

_________________


Top
 Profile E-mail  
 
 
PostPosted: 02 Jun 2011 
Хиппей (support team)
User avatar
Joined: 30 Jul 2007
Posts: 110295
Lоcаtion: Киев (Kyiv, UA)
Age: 45
Name: Andrey
Однакооо.... :shok:
Дык, замечательный релиз получилася у швейцарцев :true:
Учитавая то, что я не особо люблю грув-метол. А тут, едрить, начало альбома не вызвало раздражения, ибо плотно ассоцииривалось с трэшем a-la Pantera (вплоть до копирования вокала Ансельмо), несколько трэков в таком ключе показались достаточно грамотно сыграны, думал, если весь альбом такой, то на 4-ку ребята наработают, да и ладно. На самом дале дальше пошел более чем разнообразный Modern Thrash (в хорошем смысле этого определения) и легко запоминающиеся мелодиии и риффы. Плюс ко всеми, очень порадовал кавер на Black Sabbath :meloman: Гру ну очень здесь в тему.
В общем, отличная работа - техничная, в меру скоростная, продуманная и не пальцем деланная :meloman:
И что интересно - нет никаких визгов или монотонно рычащего вокала. Всё тюлька в тюльку :ryba:

Спасибо всем за такое приятное ознакомление с группой :thanx:

7/10

Что-то у них будет дальше... :scratch:

_________________


Top
 Profile E-mail  
 
 
PostPosted: 02 Jun 2011 
Прокъмитолист
User avatar
Joined: 12 Aug 2007
Posts: 6527
Lоcаtion: Санктъ-Петербуркъ
Age: 51
Name: Олекъ
ничегошный альбом. я потому и заинтересовался ранним материалом швейцарцев, сопсна :oops:

_________________
прокъметол - это музыко, от которово есть прок (ы)


Top
 Profile  
 
Display posts from previous:  Sort by  
Post new topic Reply to topic  [ 3 posts ] 

All times are UTC + 3 hours


Who is online

Users browsing this forum: No registered users and 2 guests


You cannot post new topics in this forum
You cannot reply to topics in this forum
You cannot edit your posts in this forum
You cannot delete your posts in this forum
You cannot post attachments in this forum

Search for:
Яндекс.Метрика
Powered by phpBB © 2000, 2002, 2005, 2007 phpBB Group