\m/ 80's metal \m/

Информационно-аналитический форум "80 см пыли" (In Search We Trust) "У нас никто никуда не спешит"
Me For You - http://me-4u.com
It is currently 19 Feb 2019

All times are UTC + 3 hours

Spoiler
Chat - temporary registration for foreign users (please leave your application here)







Post new topic Reply to topic  [ 5 posts ] 
Author Message
 
PostPosted: 26 May 2011 
Хиппей (support team)
User avatar
Joined: 30 Jul 2007
Posts: 110327
Lоcаtion: Киев (Kyiv, UA)
Age: 45
Name: Andrey
Gurd - 1997 - D-fect [flac]

Attachment:
front.jpg
front.jpg [ 1.59 MiB | Viewed 163 times ]


Genre: Modern Groove Thrash + shnyaga
Location: Switzerland
Format: flac+cue+lof+scans
Size: 347 Mb


Line-up:
V.O. Pulver - Vocals, Guitars
Tobias Roth - Drums
Marek Felis - Bass
Philippe - Guitars

    1. What Do You Live For - 04:47
    2. No Sleep - 03:12
    3. We've Been Told - 03:28
    4. Fever of Pain - 03:18
    5. Bullshit - 03:07
    6. Human Existence - 03:31
    7. Go-Go-Go - 02:52
    8. Look Away - 04:36
    9. This Place - 03:51
    10. Read My Lips - 03:34
    11. Think - 03:14
    12. Heaven Sent - 03:18
    13. Lose Myself - 03:55

    TPT: 46:43

MultiUp l Narod

Thanx to spiralarch from MMT :thanx:


log
Exact Audio Copy V1.0 beta 1 from 15. November 2010

EAC extraction logfile from 15. April 2011, 20:32

Gurd / D-fect

Used drive : Optiarc DVD RW AD-7240S Adapter: 2 ID: 0

Read mode : Secure
Utilize accurate stream : Yes
Defeat audio cache : Yes
Make use of C2 pointers : No

Read offset correction : 48
Overread into Lead-In and Lead-Out : No
Fill up missing offset samples with silence : Yes
Delete leading and trailing silent blocks : No
Null samples used in CRC calculations : Yes
Used interface : Native Win32 interface for Win NT & 2000

Used output format : Internal WAV Routines
Sample format : 44.100 Hz; 16 Bit; Stereo


TOC of the extracted CD

Track | Start | Length | Start sector | End sector
---------------------------------------------------------
1 | 0:00.00 | 4:47.35 | 0 | 21559
2 | 4:47.35 | 3:12.00 | 21560 | 35959
3 | 7:59.35 | 3:28.15 | 35960 | 51574
4 | 11:27.50 | 3:18.67 | 51575 | 66491
5 | 14:46.42 | 3:07.15 | 66492 | 80531
6 | 17:53.57 | 3:31.60 | 80532 | 96416
7 | 21:25.42 | 2:52.73 | 96417 | 109389
8 | 24:18.40 | 4:36.30 | 109390 | 130119
9 | 28:54.70 | 3:51.65 | 130120 | 147509
10 | 32:46.60 | 3:34.17 | 147510 | 163576
11 | 36:21.02 | 3:14.25 | 163577 | 178151
12 | 39:35.27 | 3:18.03 | 178152 | 193004
13 | 42:53.30 | 3:55.45 | 193005 | 210674


Range status and errors

Selected range

Filename D:\spiralarch\Gurd - D-fect.wav

Peak level 100.0 %
Extraction speed 0.3 X
Range quality 100.0 %
Copy CRC BA70D3E9
Copy OK

No errors occurred


AccurateRip summary

Track 1 accurately ripped (confidence 6) [47FF0F2A]
Track 2 accurately ripped (confidence 6) [44FC27F8]
Track 3 accurately ripped (confidence 6) [70CA13C0]
Track 4 accurately ripped (confidence 6) [1656BF17]
Track 5 accurately ripped (confidence 6) [FF645DE1]
Track 6 accurately ripped (confidence 6) [41FA7017]
Track 7 accurately ripped (confidence 6) [7F0C7EEF]
Track 8 accurately ripped (confidence 6) [9666585E]
Track 9 accurately ripped (confidence 6) [48DF74FB]
Track 10 accurately ripped (confidence 6) [7A95B0F4]
Track 11 accurately ripped (confidence 6) [F9F16625]
Track 12 accurately ripped (confidence 6) [6CD0C7BF]
Track 13 accurately ripped (confidence 6) [D44B2FC9]

All tracks accurately ripped

End of status report

==== Log checksum 5E084BF1658D06D8BB5EA1E49DDD76E08C8440A1D2ED9A9B909E2EE126D7BC32 ====


cue
REM GENRE "Thrash Metal"
REM DATE 1997
REM DISCID D80AF90D
REM COMMENT "ExactAudioCopy v1.0b1"
PERFORMER "Gurd"
TITLE "D-fect"
FILE "Gurd - D-fect.wav" WAVE
TRACK 01 AUDIO
TITLE "What Do You Live For"
PERFORMER "Gurd"
INDEX 01 00:00:00
TRACK 02 AUDIO
TITLE "No Sleep"
PERFORMER "Gurd"
INDEX 01 04:47:35
TRACK 03 AUDIO
TITLE "We've Been Told"
PERFORMER "Gurd"
INDEX 00 07:59:17
INDEX 01 07:59:35
TRACK 04 AUDIO
TITLE "Fever Of Pain"
PERFORMER "Gurd"
INDEX 00 11:27:15
INDEX 01 11:27:50
TRACK 05 AUDIO
TITLE "Bullshit"
PERFORMER "Gurd"
INDEX 00 14:46:02
INDEX 01 14:46:42
TRACK 06 AUDIO
TITLE "Human Existence"
PERFORMER "Gurd"
INDEX 01 17:53:57
TRACK 07 AUDIO
TITLE "Go-Go-Go"
PERFORMER "Gurd"
INDEX 00 21:24:62
INDEX 01 21:25:42
TRACK 08 AUDIO
TITLE "Look Away"
PERFORMER "Gurd"
INDEX 01 24:18:40
TRACK 09 AUDIO
TITLE "This Place"
PERFORMER "Gurd"
INDEX 01 28:54:70
TRACK 10 AUDIO
TITLE "Read My Lips"
PERFORMER "Gurd"
INDEX 01 32:46:60
TRACK 11 AUDIO
TITLE "Think"
PERFORMER "Gurd"
INDEX 00 36:20:17
INDEX 01 36:21:02
TRACK 12 AUDIO
TITLE "Heaven Sent"
PERFORMER "Gurd"
INDEX 00 39:34:35
INDEX 01 39:35:27
TRACK 13 AUDIO
TITLE "Lose Myself"
PERFORMER "Gurd"
INDEX 00 42:52:65
INDEX 01 42:53:30

_________________


Top
 Profile E-mail  
 
 
PostPosted: 02 Jun 2011 
Хиппей (support team)
User avatar
Joined: 30 Jul 2007
Posts: 110327
Lоcаtion: Киев (Kyiv, UA)
Age: 45
Name: Andrey
Мдя... а вот этот альбом еще далеко "не торт" :oops:
Ломаный грув-трэш и... какой-то еще мягкий, напор есть, но смешан с альтернативными фишками (в виде подобия метолкора и местами фанка), и, что самое ужасное - с речитативом и... откровенным ниггерским репом (песня "Bullshit", хотя, возможно, она как раз и является пародийной, судя по названию).
Короче, боюсь представить, что было на предыдущих альбомах, но этот меня откровенно разочаровал и нагрузил :starz:

4/10

_________________


Top
 Profile E-mail  
 
 
PostPosted: 02 Jun 2011 
Прокъмитолист
User avatar
Joined: 12 Aug 2007
Posts: 6528
Lоcаtion: Санктъ-Петербуркъ
Age: 51
Name: Олекъ
из этих трех альбомов, как ни странно, мне больше всего понравился ремиксовый - там хоть какой-то изюм присутствует :oops:

_________________
прокъметол - это музыко, от которово есть прок (ы)


Top
 Profile  
 
 
PostPosted: 03 Jun 2011 
Хиппей (support team)
User avatar
Joined: 30 Jul 2007
Posts: 110327
Lоcаtion: Киев (Kyiv, UA)
Age: 45
Name: Andrey
spiralarch wrote:
там хоть какой-то изюм присутствует

Соглашусь, запись получилась весьма инетресной, но... я до этого прослушал три альбома скопом и вот эти ремиксы очень подпортили впечатление общее. Кабы их выпустила какая-то другая группа, тогда бы еще мог адекватно оценить эту типа индустриальную музыку, а так... Таких команд, играющих подобное, было тогда валом. Всё равно Роба Зомби, Ministry или Oomph по оригинальности не переплюнуть :cry:
Это всё равно что слушать Пристов в электронной обработке. Разве что поржать или, опять-таки, проблеваться.

_________________


Top
 Profile E-mail  
 
 
PostPosted: 03 Jun 2011 
Хиппей (support team)
User avatar
Joined: 30 Jul 2007
Posts: 110327
Lоcаtion: Киев (Kyiv, UA)
Age: 45
Name: Andrey
Тьху мимо меня. Это я про альбом ремиксов :nunu:
Сории, туплю, пошел-ка спать... :pardon:

А этот меня ну никак не зацепил. Разве что слушать его надо очень часто, чтобы въелся в моск, но не хочу себя в очередной раз садомазохировать :esel:

_________________


Top
 Profile E-mail  
 
Display posts from previous:  Sort by  
Post new topic Reply to topic  [ 5 posts ] 

All times are UTC + 3 hours


Who is online

Users browsing this forum: No registered users and 4 guests


You cannot post new topics in this forum
You cannot reply to topics in this forum
You cannot edit your posts in this forum
You cannot delete your posts in this forum
You cannot post attachments in this forum

Search for:
Яндекс.Метрика
Powered by phpBB © 2000, 2002, 2005, 2007 phpBB Group