\m/ 80's metal \m/

Информационно-аналитический форум "80 см пыли" (In Search We Trust) "У нас никто никуда не спешит"
Me For You - http://me-4u.com
It is currently 24 Apr 2019

All times are UTC + 3 hours

Spoiler
Chat - temporary registration for foreign users (please leave your application here)







Post new topic Reply to topic  [ 5 posts ] 
Author Message
 
PostPosted: 27 Apr 2011 
Работнечег
User avatar
Joined: 28 Aug 2007
Posts: 5815
Lоcаtion: г. Москва
Age: 30
Name: Дима
Image

Band: Gallows Pole
Album: The Smile Of The Dolphins
Label: BGG Entertainment
Genre: Rock
Coutry: Austria
Format: Flac + Log + Cue + Covers
Size: 239 Mb

Line-Up:
Alois Martin Binder - Vocals, Guitars
Georg Rinder - Keyboards
R. Waters - Bass
Christoph Hofbauer - Drums


Tracklist:
1. The Smile Of The Dolphins (Part I) 08:26
2. You And Me 05:10
3. Come And Get Me 04:31
4. The Other Side 04:11
5. The Smile Of The Dolphins (Part II) 05:50
6. The Smile Of The Dolphins (Part III) 04:40
7. Fighting The Storm 04:53
8. The Smile Of The Dolphins (Part IV) 05:11

LOG
Exact Audio Copy V0.99 prebeta 5 from 4. May 2009

EAC extraction logfile from 20. April 2011, 13:21

Gallows Pole / The Smile Of The Dolphins

Used drive : PIONEER DVD-RW DVR-116D Adapter: 0 ID: 0

Read mode : Secure
Utilize accurate stream : Yes
Defeat audio cache : Yes
Make use of C2 pointers : No

Read offset correction : 96
Overread into Lead-In and Lead-Out : No
Fill up missing offset samples with silence : Yes
Delete leading and trailing silent blocks : No
Null samples used in CRC calculations : Yes
Used interface : Native Win32 interface for Win NT & 2000

Used output format : User Defined Encoder
Selected bitrate : 32 kBit/s
Quality : High
Add ID3 tag : No
Command line compressor : C:\Program Files\Exact Audio Copy\Flac\flac.exe
Additional command line options : -6 -V %s


TOC of the extracted CD

Track | Start | Length | Start sector | End sector
---------------------------------------------------------
1 | 0:00.00 | 8:28.25 | 0 | 38124
2 | 8:28.25 | 5:12.05 | 38125 | 61529
3 | 13:40.30 | 4:32.17 | 61530 | 81946
4 | 18:12.47 | 4:09.33 | 81947 | 100654
5 | 22:22.05 | 5:57.30 | 100655 | 127459
6 | 28:19.35 | 4:44.55 | 127460 | 148814
7 | 33:04.15 | 4:51.67 | 148815 | 170706
8 | 37:56.07 | 5:05.30 | 170707 | 193611


Range status and errors

Selected range

Filename D:\Музыка\Lossless\Gallows Pole - The Smile Of The Dolphins (1999)\Gallows Pole - The Smile Of The Dolphins.wav

Suspicious position 0:08:15

Peak level 99.5 %
Range quality 99.7 %
Copy CRC 217C3BB9
Copy finished

There were errors


AccurateRip summary

Track 1 not present in database
Track 2 not present in database
Track 3 not present in database
Track 4 not present in database
Track 5 not present in database
Track 6 not present in database
Track 7 not present in database
Track 8 not present in database

None of the tracks are present in the AccurateRip database

End of status report

CUE
REM GENRE "Heavy Metal"
REM DATE 1999
REM DISCID 620A1508
REM COMMENT "ExactAudioCopy v0.99pb5"
PERFORMER "Gallows Pole"
TITLE "The Smile Of The Dolphins"
FILE "Gallows Pole - The Smile Of The Dolphins.flac" WAVE
TRACK 01 AUDIO
TITLE "The Smile Of The Dolphins (Part I)"
PERFORMER "Gallows Pole"
INDEX 01 00:00:00
TRACK 02 AUDIO
TITLE "You And Me"
PERFORMER "Gallows Pole"
INDEX 01 08:28:25
TRACK 03 AUDIO
TITLE "Come And Get Me"
PERFORMER "Gallows Pole"
INDEX 01 13:40:30
TRACK 04 AUDIO
TITLE "The Other Side"
PERFORMER "Gallows Pole"
INDEX 01 18:12:47
TRACK 05 AUDIO
TITLE "The Smile Of The Dolphins (Part II)"
PERFORMER "Gallows Pole"
INDEX 01 22:22:05
TRACK 06 AUDIO
TITLE "The Smile Of The Dolphins (Part III)"
PERFORMER "Gallows Pole"
INDEX 01 28:19:35
TRACK 07 AUDIO
TITLE "Fighting The Storm"
PERFORMER "Gallows Pole"
INDEX 00 33:02:57
INDEX 01 33:04:15
TRACK 08 AUDIO
TITLE "The Smile Of The Dolphins (Part IV)"
PERFORMER "Gallows Pole"
INDEX 01 37:56:07


Narod.Ru

Самый спокойноый релиз от группы. На хэви-металл тут даж ничего не претендует, самые бодренькие это The Other Side и Fighting The Storm. Основные инструменты это акустика и клавиши, последние создают этакий налёт симфоничности в некоторых песнях. Альбом на любителя и под определенное настроение, но мне в целом понравилось вечером после рабочго дня)
P.S. к сожалению сграбилось с ошибкой, есть одна подозрительная позиция, думаю дело в моём сидюке, надо бы какой-нибудь получше присмотреть ( пока что только такой рип могу предоставить.


Top
 Profile E-mail  
 
 
PostPosted: 27 Apr 2011 
хард н хэвщик (support team)
User avatar
Joined: 02 Jun 2008
Posts: 16881
Lоcаtion: Н.Новгород
Age: 32
Name: Артем
Димон, спасибо за раритятинку ! :true:


Top
 Profile  
 
 
PostPosted: 06 May 2011 
Хиппей (support team)
User avatar
Joined: 30 Jul 2007
Posts: 111813
Lоcаtion: Киев (Kyiv, UA)
Age: 45
Name: Andrey
:thanx:

mirror: MultiUp l Narod

_________________


Top
 Profile E-mail  
 
 
PostPosted: 31 Oct 2011 
труъ антисионист
User avatar
Joined: 01 Aug 2007
Posts: 4541
Lоcаtion: Откуда и большинство из нас
Age: 38
Name: Дядя Вова
Спасибо - беру :true:

_________________
Image
Image


Top
 Profile  
 
 
PostPosted: 22 Nov 2012 
Труъ
User avatar
Joined: 05 Oct 2008
Posts: 194
Lоcаtion: Saint Petersburg
Age: 45
Name: Jesse
Спасибо!


Top
 Profile  
 
Display posts from previous:  Sort by  
Post new topic Reply to topic  [ 5 posts ] 

All times are UTC + 3 hours


Who is online

Users browsing this forum: No registered users and 1 guest


You cannot post new topics in this forum
You cannot reply to topics in this forum
You cannot edit your posts in this forum
You cannot delete your posts in this forum
You cannot post attachments in this forum

Search for:
Яндекс.Метрика
Powered by phpBB © 2000, 2002, 2005, 2007 phpBB Group