\m/ 80's metal \m/

Информационно-аналитический форум "80 см пыли" (In Search We Trust) "У нас никто никуда не спешит"
Me For You - http://me-4u.com
It is currently 24 Apr 2019

All times are UTC + 3 hours

Spoiler
Chat - temporary registration for foreign users (please leave your application here)







Post new topic Reply to topic  [ 21 posts ]  Go to page 1, 2  Next
Author Message
 
PostPosted: 07 Apr 2011 
Работнечег
User avatar
Joined: 28 Aug 2007
Posts: 5814
Lоcаtion: г. Москва
Age: 30
Name: Дима
Image

Band: Gallows Pole
Album: In Rock We Trust
Label: BGG Entertainment #BGG CD 1001
Genre: Heavy Metal/Hard Rock (как-то я так и не определился по поводу стиля)
Coutry: Austria
Format: Flac + Log + Cue + Covers
Size: 345 Mb

Line-Up:
Alois Martin Binder - Vocals, Guitar
? (надо бы спросить у группы)

Tracklist:
1. When the Music Plays 03:33
2. Summer Rain 05:29
3. I'm A Looser 04:59
4. In The End 04:11
5. Welcome Song 06:08
6. Whiskey 03;16
7. Black Monday 04:48
8. In Rock We Trust 10:56
9. Abyss 05:27
10. Only one night 03:19

LOG
Exact Audio Copy V0.99 prebeta 5 from 4. May 2009

EAC extraction logfile from 7. April 2011, 14:34

Gallows Pole / In Rock We Trust

Used drive : PIONEER DVD-RW DVR-116D Adapter: 0 ID: 0

Read mode : Secure
Utilize accurate stream : Yes
Defeat audio cache : Yes
Make use of C2 pointers : No

Read offset correction : 96
Overread into Lead-In and Lead-Out : No
Fill up missing offset samples with silence : Yes
Delete leading and trailing silent blocks : No
Null samples used in CRC calculations : Yes
Used interface : Native Win32 interface for Win NT & 2000

Used output format : User Defined Encoder
Selected bitrate : 32 kBit/s
Quality : High
Add ID3 tag : No
Command line compressor : C:\Program Files\Exact Audio Copy\Flac\flac.exe
Additional command line options : -6 -V %s


TOC of the extracted CD

Track | Start | Length | Start sector | End sector
---------------------------------------------------------
1 | 0:00.00 | 3:35.40 | 0 | 16164
2 | 3:35.40 | 5:27.47 | 16165 | 40736
3 | 9:03.12 | 5:00.68 | 40737 | 63304
4 | 14:04.05 | 4:14.07 | 63305 | 82361
5 | 18:18.12 | 6:10.15 | 82362 | 110126
6 | 24:28.27 | 3:17.48 | 110127 | 124949
7 | 27:46.00 | 4:49.55 | 124950 | 146679
8 | 32:35.55 | 10:59.15 | 146680 | 196119
9 | 43:34.70 | 5:29.55 | 196120 | 220849
10 | 49:04.50 | 3:21.42 | 220850 | 235966


Range status and errors

Selected range

Filename D:\Музыка\Lossless\Gallows Pole - In Rock We Trust (1982) (Reissued In 1992)\Gallows Pole - In Rock We Trust.wav

Peak level 100.0 %
Range quality 100.0 %
Copy CRC A0CD9CC2
Copy OK

No errors occurred


AccurateRip summary

Track 1 accurately ripped (confidence 1) [DB0D4752]
Track 2 accurately ripped (confidence 1) [A56C9AE1]
Track 3 accurately ripped (confidence 1) [30C26380]
Track 4 accurately ripped (confidence 1) [B9425601]
Track 5 accurately ripped (confidence 1) [0F381FCB]
Track 6 accurately ripped (confidence 1) [01102FFB]
Track 7 accurately ripped (confidence 1) [ACC638FB]
Track 8 accurately ripped (confidence 1) [941835AC]
Track 9 accurately ripped (confidence 1) [F6E11B1F]
Track 10 accurately ripped (confidence 1) [973E4A5D]

All tracks accurately ripped

End of status report

CUE
REM GENRE "Hard Rock"
REM DATE 1992
REM DISCID 890C4A0A
REM COMMENT "ExactAudioCopy v0.99pb5"
PERFORMER "Gallows Pole"
TITLE "In Rock We Trust"
FILE "Gallows Pole - In Rock We Trust.flac" WAVE
TRACK 01 AUDIO
TITLE "When The Music Play"
PERFORMER "Gallows Pole"
INDEX 01 00:00:00
TRACK 02 AUDIO
TITLE "Summerrain"
PERFORMER "Gallows Pole"
INDEX 00 03:34:55
INDEX 01 03:35:40
TRACK 03 AUDIO
TITLE "I'm A Loser"
PERFORMER "Gallows Pole"
INDEX 00 09:02:05
INDEX 01 09:03:12
TRACK 04 AUDIO
TITLE "In The End"
PERFORMER "Gallows Pole"
INDEX 00 14:03:02
INDEX 01 14:04:05
TRACK 05 AUDIO
TITLE "Welcome Song"
PERFORMER "Gallows Pole"
INDEX 00 18:17:10
INDEX 01 18:18:12
TRACK 06 AUDIO
TITLE "Whiskey"
PERFORMER "Gallows Pole"
INDEX 00 24:27:27
INDEX 01 24:28:27
TRACK 07 AUDIO
TITLE "Black Monday"
PERFORMER "Gallows Pole"
INDEX 00 27:44:70
INDEX 01 27:46:00
TRACK 08 AUDIO
TITLE "In Rock We Trust"
PERFORMER "Gallows Pole"
INDEX 00 32:35:10
INDEX 01 32:35:55
TRACK 09 AUDIO
TITLE "Abyss"
PERFORMER "Gallows Pole"
INDEX 00 43:33:60
INDEX 01 43:34:70
TRACK 10 AUDIO
TITLE "Only One Night"
PERFORMER "Gallows Pole"
INDEX 00 49:03:35
INDEX 01 49:04:50

Spectrum
Image


Narod.Ru

Не знаю чем, но альбом очень понравился, хотя вроде и нет в нём ничего выдающегося!
Довольно странная картина, я думал на сиди версии просто 2 бонуса добавили, а получается, что Lonely Road и Memories с винила на сиди нет, зато появились When The Music Plays, Summer Rain, In The End и Black Monday.
За возможность покупки данного раритетного диска спасибо вокалисту группы Martin'у Binder :true: Осталось ещё 4 копии у них, так что если кому надо, пишите на мыло группе.
Порадовала вкладка: :crazy:
Image


Top
 Profile E-mail  
 
 
PostPosted: 07 Apr 2011 
Прокъмитолист
User avatar
Joined: 12 Aug 2007
Posts: 6545
Lоcаtion: Санктъ-Петербуркъ
Age: 51
Name: Олекъ
забираю. спасибо, Дим! :thanx: :true:

_________________
прокъметол - это музыко, от которово есть прок (ы)


Top
 Profile  
 
 
PostPosted: 07 Apr 2011 
Персональный статус
Joined: 02 Apr 2010
Posts: 223
Name: Андрей
Интересная музычка, действительно хрен поймёшь к какому стилю это отнести, но вроде понравилось. :oops: Спасибо! :thanx:


Top
 Profile  
 
 
PostPosted: 07 Apr 2011 
спирт 100%
User avatar
Joined: 22 Sep 2008
Posts: 4395
Age: 47
Name: Саня
Дим,СПАСИБО! :thanx: :true:


Top
 Profile  
 
 
PostPosted: 08 Apr 2011 
Труъ
User avatar
Joined: 14 Jul 2009
Posts: 158
Lоcаtion: Hell Is Here
Age: 48
Name: Adriano
Дима, Many Thanx !! :thanx:


Top
 Profile E-mail  
 
 
PostPosted: 08 Apr 2011 
хард н хэвщик (support team)
User avatar
Joined: 02 Jun 2008
Posts: 16881
Lоcаtion: Н.Новгород
Age: 32
Name: Артем
Дима, спасибо ! :true:


Top
 Profile  
 
 
PostPosted: 08 Apr 2011 
Я набрал 1000 сообщений!
User avatar
Joined: 25 Dec 2008
Posts: 1545
Age: 43
Name: Павел
Дима,спасибо!Я не совсем въехал в этот альбом,но пригодится. :true:


Top
 Profile  
 
 
PostPosted: 08 Apr 2011 
Хиппей (support team)
User avatar
Joined: 30 Jul 2007
Posts: 111813
Lоcаtion: Киев (Kyiv, UA)
Age: 45
Name: Andrey
Димка, спасибо! :thanx:

mirror: MultiUp l Narod

_________________


Top
 Profile E-mail  
 
 
PostPosted: 08 Apr 2011 
Пионэръ
Joined: 27 Aug 2010
Posts: 10
Lоcаtion: England
Name: Ken
спасибо


Top
 Profile E-mail  
 
 
PostPosted: 08 Apr 2011 
Old Time Rock`n`Roll
User avatar
Joined: 23 Jun 2008
Posts: 3410
Lоcаtion: г.Ульяновск
Age: 40
Name: Константин
Cпасибо, наверное возьму!


Top
 Profile  
 
 
PostPosted: 08 Apr 2011 
Хиппей (support team)
User avatar
Joined: 30 Jul 2007
Posts: 111813
Lоcаtion: Киев (Kyiv, UA)
Age: 45
Name: Andrey
oldrocker wrote:
наверное возьму!

Попробуй не скачать :fingal:

_________________


Top
 Profile E-mail  
 
 
PostPosted: 08 Apr 2011 
Old Time Rock`n`Roll
User avatar
Joined: 23 Jun 2008
Posts: 3410
Lоcаtion: г.Ульяновск
Age: 40
Name: Константин
:shok: Дедовщина на форуме?


Top
 Profile  
 
 
PostPosted: 09 Apr 2011 
Хиппей (support team)
User avatar
Joined: 30 Jul 2007
Posts: 111813
Lоcаtion: Киев (Kyiv, UA)
Age: 45
Name: Andrey
Ты кого дедом обозвал, очкарег?.. :shok:

_________________


Top
 Profile E-mail  
 
 
PostPosted: 09 Apr 2011 
Old Time Rock`n`Roll
User avatar
Joined: 23 Jun 2008
Posts: 3410
Lоcаtion: г.Ульяновск
Age: 40
Name: Константин
Да я насквозь тебя вижу, старая! :true:


Top
 Profile  
 
 
PostPosted: 09 Apr 2011 
Хиппей (support team)
User avatar
Joined: 30 Jul 2007
Posts: 111813
Lоcаtion: Киев (Kyiv, UA)
Age: 45
Name: Andrey
Говори, пой, соколик. Но - мороженое - не отдам :nea:

_________________


Top
 Profile E-mail  
 
 
PostPosted: 09 Apr 2011 
Old Time Rock`n`Roll
User avatar
Joined: 23 Jun 2008
Posts: 3410
Lоcаtion: г.Ульяновск
Age: 40
Name: Константин
олдрокеры не едят мороженных! :true:


Top
 Profile  
 
 
PostPosted: 09 Apr 2011 
Труъ
User avatar
Joined: 18 Nov 2009
Posts: 126
Lоcаtion: Hellville
Age: 43
Name: Mapeк
Cпасибо Dima, will grab it later!


Top
 Profile E-mail  
 
 
PostPosted: 23 Jul 2012 
Труъ
User avatar
Joined: 05 Oct 2008
Posts: 194
Lоcаtion: Saint Petersburg
Age: 45
Name: Jesse
:thanx:


Top
 Profile  
 
 
PostPosted: 23 Jul 2012 
Хиппей (support team)
User avatar
Joined: 30 Jul 2007
Posts: 111813
Lоcаtion: Киев (Kyiv, UA)
Age: 45
Name: Andrey
Вадим, у тебя что-то случилось в жизни за несколько месяцев?.. :oops:
Или просто отпуск начался? :crazy:

_________________


Top
 Profile E-mail  
 
 
PostPosted: 23 Jul 2012 
Труъ
User avatar
Joined: 05 Oct 2008
Posts: 194
Lоcаtion: Saint Petersburg
Age: 45
Name: Jesse
Scatterbrain wrote:
Вадим, у тебя что-то случилось в жизни за несколько месяцев?.. :oops:
Или просто отпуск начался? :crazy:

Представляешь, случилось...


Top
 Profile  
 
Display posts from previous:  Sort by  
Post new topic Reply to topic  [ 21 posts ]  Go to page 1, 2  Next

All times are UTC + 3 hours


Who is online

Users browsing this forum: No registered users and 1 guest


You cannot post new topics in this forum
You cannot reply to topics in this forum
You cannot edit your posts in this forum
You cannot delete your posts in this forum
You cannot post attachments in this forum

Search for:
Яндекс.Метрика
Powered by phpBB © 2000, 2002, 2005, 2007 phpBB Group