\m/ 80's metal \m/

Информационно-аналитический форум "80 см пыли" (In Search We Trust) "У нас никто никуда не спешит"
Me For You - http://me-4u.com
It is currently 18 Feb 2019

All times are UTC + 3 hours

Spoiler
Chat - temporary registration for foreign users (please leave your application here)







Post new topic Reply to topic  [ 3 posts ] 
Author Message
 
PostPosted: 11 Mar 2011 
Генеральный thrasher
User avatar
Joined: 03 Oct 2008
Posts: 3599
Lоcаtion: Ханты-Мансийский АО
Age: 44
Name: Сергей
Image

Year:1987 (2007 Re-Issue)
Style:Hardcore/Crossover
Country:U.S.A.
Audio:Flac+Cue+Log+Scans
Size:299Mb
Source:my CD
Label:Metal Mind

Line-Up:
Chris Doherty - lead vocals,guitar
Brian Betzger - drums
Fritz - lead guitar
Joe Gittleman - bass

Tracklist:
1. Haunted House 01:40
2. We'll Give It To You 03:11
3. Sheetrock 03:53
4. Ballerina Massacre 03:49
5. Born To Rock 04:36
6. Another Bomb 02:47
7. L.S.D.B. 01:10
8. Whoever Said 03:36
9. Party With The Devil 03:56
10. Somethings 02:32
11. The Climb 04:09
12. Sick Sex Six 06:12

Cue
REM GENRE Hardcore
REM DATE 1987
REM DISCID A40A690D
REM COMMENT "ExactAudioCopy v0.99pb5"
PERFORMER "Gang Green"
TITLE "You Got It"
FILE "Gang Green - You Got It.flac" WAVE
TRACK 01 AUDIO
TITLE "Haunted House"
PERFORMER "Gang Green"
FLAGS DCP
INDEX 01 00:00:00
TRACK 02 AUDIO
TITLE "We'll Give It To You"
PERFORMER "Gang Green"
FLAGS DCP
INDEX 01 01:40:63
TRACK 03 AUDIO
TITLE "Sheetrock"
PERFORMER "Gang Green"
FLAGS DCP
INDEX 01 04:52:51
TRACK 04 AUDIO
TITLE "Ballerina Massacre"
PERFORMER "Gang Green"
FLAGS DCP
INDEX 01 08:46:36
TRACK 05 AUDIO
TITLE "Born To Rock"
PERFORMER "Gang Green"
FLAGS DCP
INDEX 01 12:35:54
TRACK 06 AUDIO
TITLE "Bomb"
PERFORMER "Gang Green"
FLAGS DCP
INDEX 01 17:12:16
TRACK 07 AUDIO
TITLE "Lsdb"
PERFORMER "Gang Green"
FLAGS DCP
INDEX 01 19:59:61
TRACK 08 AUDIO
TITLE "Whoever Said"
PERFORMER "Gang Green"
FLAGS DCP
INDEX 01 21:10:51
TRACK 09 AUDIO
TITLE "Party With The Devil"
PERFORMER "Gang Green"
FLAGS DCP
INDEX 01 24:46:56
TRACK 10 AUDIO
TITLE "Some Thing"
PERFORMER "Gang Green"
FLAGS DCP
INDEX 01 28:43:31
TRACK 11 AUDIO
TITLE "The Climb"
PERFORMER "Gang Green"
FLAGS DCP
INDEX 01 31:16:14
TRACK 12 AUDIO
TITLE "Sick Sex Six"
PERFORMER "Gang Green"
FLAGS DCP
INDEX 01 35:25:39


Log
Exact Audio Copy V0.99 prebeta 5 from 4. May 2009

Отчёт EAC об извлечении, выполненном 7. марта 2011, 15:06

Gang Green / You Got It

Дисковод: TSSTcorpCDDVDW SH-S202N Adapter: 0 ID: 1

Режим чтения : Достоверность
Использование точного потока : Да
Отключение кэша аудио : Да
Использование указателей C2 : Нет

Коррекция смещения при чтении : 6
Способность читать области Lead-in и Lead-out : Нет
Заполнение пропущенных сэмплов тишиной : Да
Удаление блоков с тишиной в начале и конце : Нет
При вычислениях CRC использовались нулевые сэмплы : Да
Интерфейс : Встроенный Win32-интерфейс для Win NT/2000

Выходной формат : Пользовательский кодировщик
Выбранный битрейт : 768 kBit/s
Качество : Высокий
Добавление ID3-тэга : Нет
Утилита сжатия : C:\Program Files\Exact Audio Copy\FLAC\FLAC.EXE
Дополнительные параметры : -6 -V -T "ARTIST=%a" -T "TITLE=%t" -T "ALBUM=%g" -T "DATE=%y" -T "TRACKNUMBER=%n" -T "GENRE=%m" -T "COMMENT=%e" %s -o %d


TOC извлечённого CD

Трек | Старт | Длительность | Начальный сектор | Конечный сектор
---------------------------------------------------------------------
1 | 0:00.00 | 1:40.63 | 0 | 7562
2 | 1:40.63 | 3:11.63 | 7563 | 21950
3 | 4:52.51 | 3:53.60 | 21951 | 39485
4 | 8:46.36 | 3:49.18 | 39486 | 56678
5 | 12:35.54 | 4:36.37 | 56679 | 77415
6 | 17:12.16 | 2:47.45 | 77416 | 89985
7 | 19:59.61 | 1:10.65 | 89986 | 95300
8 | 21:10.51 | 3:36.05 | 95301 | 111505
9 | 24:46.56 | 3:56.50 | 111506 | 129255
10 | 28:43.31 | 2:32.58 | 129256 | 140713
11 | 31:16.14 | 4:09.25 | 140714 | 159413
12 | 35:25.39 | 6:12.34 | 159414 | 187347
13 | 44:09.73 | 0:15.12 | 198748 | 199884


Характеристики диапазона извлечения и сообщения об ошибках

Выбранный диапазон

Имя файла D:\Lossless Music\Gang Green - You Got It.wav

Пиковый уровень 99.6 %
Качество диапазона 100.0 %
CRC копии 0CF055DD
Копирование... OK

Ошибок не произошло


AccurateRip: сводка

Трек 1 точное извлечение (доверие 1) [F9028DB1]
Трек 2 точное извлечение (доверие 1) [B1653969]
Трек 3 точное извлечение (доверие 1) [25CA2C21]
Трек 4 точное извлечение (доверие 1) [855ABDCA]
Трек 5 точное извлечение (доверие 1) [45BE8893]
Трек 6 точное извлечение (доверие 1) [44AD4490]
Трек 7 точное извлечение (доверие 1) [4DF8890E]
Трек 8 точное извлечение (доверие 1) [F9FBC943]
Трек 9 точное извлечение (доверие 1) [6A912188]
Трек 10 точное извлечение (доверие 1) [1ADEACC5]
Трек 11 точное извлечение (доверие 1) [6FD4900F]
Трек 12 точное извлечение (доверие 1) [5942516C]

Все треки извлечены точно

Конец отчёта


You Got It


Top
 Profile  
 
 
PostPosted: 11 Mar 2011 
дядя Миша
User avatar
Joined: 17 Oct 2008
Posts: 3094
Lоcаtion: USSR
Age: 56
Name: Khy
спасибо ! не слышал . интересно.


Top
 Profile  
 
 
PostPosted: 11 Mar 2011 
Хиппей (support team)
User avatar
Joined: 30 Jul 2007
Posts: 110315
Lоcаtion: Киев (Kyiv, UA)
Age: 45
Name: Andrey
Спасибо! :thanx:
Знатные зверюги :true:

mirror: http://www.multiupload.com/8PH76DJAR0

_________________


Top
 Profile E-mail  
 
Display posts from previous:  Sort by  
Post new topic Reply to topic  [ 3 posts ] 

All times are UTC + 3 hours


Who is online

Users browsing this forum: No registered users and 1 guest


You cannot post new topics in this forum
You cannot reply to topics in this forum
You cannot edit your posts in this forum
You cannot delete your posts in this forum
You cannot post attachments in this forum

Search for:
Яндекс.Метрика
Powered by phpBB © 2000, 2002, 2005, 2007 phpBB Group