\m/ 80's metal \m/

Информационно-аналитический форум "80 см пыли" (In Search We Trust) "У нас никто никуда не спешит"
Me For You - http://me-4u.com
It is currently 24 Apr 2019

All times are UTC + 3 hours

Spoiler
Chat - temporary registration for foreign users (please leave your application here)







Post new topic Reply to topic  [ 11 posts ] 
Author Message
 
PostPosted: 09 Nov 2010 
Пионэръ
User avatar
Joined: 08 Nov 2010
Posts: 43
Lоcаtion: Россия
Name: Юрий
* Перезалейте, пожалуйста: | Re-up please:
Gravestone - 1984 -Victim of Chains


Gravestone - 1984 -Victim of Chains

Image

Жанр: Heavy metal
Год выпуска диска: 1984
Производитель диска: Germany
Аудио кодек: FLAC
Тип рипа: tracks+.cue
Битрейт аудио: lossless
Продолжительность: 49:34
Size: 336mb+cover :21,95mb
Трэклист:
1. Fly Like An Eagle (2:56)
2. Death And Reality (3:56)
3. Son Of The Freeway (3:53)
4. So Sad (4:40)
5. The Hour (4:27)
6. For A Girl (5:16)
7. Rock And Roll Is Easy (4:21)
8. The Bells Of Notre Dame (1:40)
9. Blind Rage (3:21)
10. War (Bonustrack)(4:02)
11. Flying (Bonustrack)(7:14)
12. Hope [live](Bonustrack) (3:48)

"LOG"
Exact Audio Copy V0.99 prebeta 3 from 28. July 2007

Отчёт EAC об извлечении, выполненном 14. октября 2009, 8:09

Gravestone / Victim Of Chains

Дисковод: Optiarc DVD RW AD-7220S Adapter: 2 ID: 0

Режим чтения : Достоверность
Использование точного потока : Да
Отключение кэша аудио : Да
Использование указателей C2 : Нет

Коррекция смещения при чтении : 6
Способность читать области Lead-in и Lead-out : Нет
Заполнение пропущенных сэмплов тишиной : Да
Удаление блоков с тишиной в начале и конце : Нет
При вычислениях CRC использовались нулевые сэмплы : Да
Интерфейс : Установленный внешний ASPI-интерфейс
Обработка зазоров : Не обнаружено, добавлено к предыдущему треку

Выходной формат : Внутренние WAV-операции
Формат сэмплов : 44.100 Гц; 16 бит; стерео


TOC извлечённого CD

Трек | Старт | Длительность | Начальный сектор | Конечный сектор
---------------------------------------------------------------------
1 | 0:00.00 | 2:56.68 | 0 | 13267
2 | 2:56.68 | 3:56.60 | 13268 | 31027
3 | 6:53.53 | 3:53.48 | 31028 | 48550
4 | 10:47.26 | 4:40.74 | 48551 | 69624
5 | 15:28.25 | 4:27.07 | 69625 | 89656
6 | 19:55.32 | 5:16.57 | 89657 | 113413
7 | 25:12.14 | 4:21.47 | 113414 | 133035
8 | 29:33.61 | 1:40.00 | 133036 | 140535
9 | 31:13.61 | 3:21.05 | 140536 | 155615
10 | 34:34.66 | 4:02.31 | 155616 | 173796
11 | 38:37.22 | 7:14.42 | 173797 | 206388
12 | 45:51.64 | 3:48.68 | 206389 | 223556


Трек 1

Имя файла D:\MUSIC\Gravestone - 1984 - Victum In Chains\01 - Fly Like An Eagle.wav

Пиковый уровень 95.1 %
Качество трека 99.8 %
CRC копии 69620A66
Трек не обнаружен в базе AccurateRip
Копирование... OK

Трек 2

Имя файла D:\MUSIC\Gravestone - 1984 - Victum In Chains\02 - Death And Reality.wav

Пиковый уровень 95.0 %
Качество трека 99.9 %
CRC копии EE31DB92
Трек не обнаружен в базе AccurateRip
Копирование... OK

Трек 3

Имя файла D:\MUSIC\Gravestone - 1984 - Victum In Chains\03 - Son Of The Freeway.wav

Пиковый уровень 95.0 %
Качество трека 100.0 %
CRC копии 4C7D0E9C
Трек не обнаружен в базе AccurateRip
Копирование... OK

Трек 4

Имя файла D:\MUSIC\Gravestone - 1984 - Victum In Chains\04 - So Sad.wav

Пиковый уровень 97.9 %
Качество трека 100.0 %
CRC копии FA335855
Трек не обнаружен в базе AccurateRip
Копирование... OK

Трек 5

Имя файла D:\MUSIC\Gravestone - 1984 - Victum In Chains\05 - The Hour.wav

Пиковый уровень 95.0 %
Качество трека 100.0 %
CRC копии AB12E923
Трек не обнаружен в базе AccurateRip
Копирование... OK

Трек 6

Имя файла D:\MUSIC\Gravestone - 1984 - Victum In Chains\06 - For A Girl.wav

Пиковый уровень 97.1 %
Качество трека 99.9 %
CRC копии C0D36E8B
Трек не обнаружен в базе AccurateRip
Копирование... OK

Трек 7

Имя файла D:\MUSIC\Gravestone - 1984 - Victum In Chains\07 - Rock And Roll Is Easy.wav

Пиковый уровень 95.0 %
Качество трека 100.0 %
CRC копии FD1461F4
Трек не обнаружен в базе AccurateRip
Копирование... OK

Трек 8

Имя файла D:\MUSIC\Gravestone - 1984 - Victum In Chains\08 - The Bells Of Notre Dame.wav

Пиковый уровень 95.8 %
Качество трека 100.0 %
CRC копии DE063A4F
Трек не обнаружен в базе AccurateRip
Копирование... OK

Трек 9

Имя файла D:\MUSIC\Gravestone - 1984 - Victum In Chains\09 - Blind Rage.wav

Пиковый уровень 96.7 %
Качество трека 100.0 %
CRC копии 4F76DC42
Трек не обнаружен в базе AccurateRip
Копирование... OK

Трек 10

Имя файла D:\MUSIC\Gravestone - 1984 - Victum In Chains\10 - War.wav

Пиковый уровень 97.5 %
Качество трека 99.9 %
CRC копии FFFE3A13
Трек не обнаружен в базе AccurateRip
Копирование... OK

Трек 11

Имя файла D:\MUSIC\Gravestone - 1984 - Victum In Chains\11 - Flying.wav

Пиковый уровень 95.9 %
Качество трека 100.0 %
CRC копии 05335FCE
Трек не обнаружен в базе AccurateRip
Копирование... OK

Трек 12

Имя файла D:\MUSIC\Gravestone - 1984 - Victum In Chains\12 - Hope [live].wav

Пиковый уровень 95.1 %
Качество трека 100.0 %
CRC копии 1C5269C2
Трек не обнаружен в базе AccurateRip
Копирование... OK


Ни одного трека нет в базе AccurateRip

Ошибок не произошло

Конец отчёта

"CUE"
REM GENRE "Heavy Metal"
REM DATE 1984
REM DISCID B00BA40C
REM COMMENT "ExactAudioCopy v0.99pb3"
PERFORMER "Gravestone"
TITLE "Victim Of Chains"
FILE "01 - Fly Like An Eagle.wav" WAVE
TRACK 01 AUDIO
TITLE "Fly Like An Eagle"
PERFORMER "Gravestone"
FLAGS DCP
INDEX 01 00:00:00
TRACK 02 AUDIO
TITLE "Death And Reality"
PERFORMER "Gravestone"
FLAGS DCP
INDEX 00 02:56:57
FILE "02 - Death And Reality.wav" WAVE
INDEX 01 00:00:00
FILE "03 - Son Of The Freeway.wav" WAVE
TRACK 03 AUDIO
TITLE "Son Of The Freeway"
PERFORMER "Gravestone"
FLAGS DCP
INDEX 01 00:00:00
FILE "04 - So Sad.wav" WAVE
TRACK 04 AUDIO
TITLE "So Sad"
PERFORMER "Gravestone"
FLAGS DCP
INDEX 01 00:00:00
TRACK 05 AUDIO
TITLE "The Hour"
PERFORMER "Gravestone"
FLAGS DCP
INDEX 00 04:40:63
FILE "05 - The Hour.wav" WAVE
INDEX 01 00:00:00
TRACK 06 AUDIO
TITLE "For A Girl"
PERFORMER "Gravestone"
FLAGS DCP
INDEX 00 04:26:71
FILE "06 - For A Girl.wav" WAVE
INDEX 01 00:00:00
FILE "07 - Rock And Roll Is Easy.wav" WAVE
TRACK 07 AUDIO
TITLE "Rock And Roll Is Easy"
PERFORMER "Gravestone"
FLAGS DCP
INDEX 01 00:00:00
TRACK 08 AUDIO
TITLE "The Bells Of Notre Dame"
PERFORMER "Gravestone"
FLAGS DCP
INDEX 00 04:21:41
FILE "08 - The Bells Of Notre Dame.wav" WAVE
INDEX 01 00:00:00
FILE "09 - Blind Rage.wav" WAVE
TRACK 09 AUDIO
TITLE "Blind Rage"
PERFORMER "Gravestone"
FLAGS DCP
INDEX 01 00:00:00
FILE "10 - War.wav" WAVE
TRACK 10 AUDIO
TITLE "War"
PERFORMER "Gravestone"
FLAGS DCP
INDEX 01 00:00:00
TRACK 11 AUDIO
TITLE "Flying"
PERFORMER "Gravestone"
FLAGS DCP
INDEX 00 04:02:27
FILE "11 - Flying.wav" WAVE
INDEX 01 00:00:00
TRACK 12 AUDIO
TITLE "Hope [live]"
PERFORMER "Gravestone"
FLAGS DCP
INDEX 00 07:14:31
FILE "12 - Hope [live].wav" WAVE
INDEX 01 00:00:00


1.http://ifolder.ru/20188916
2.http://ifolder.ru/20189292
3.http://ifolder.ru/20189613
4.http://ifolder.ru/20189797
5.cover http://ifolder.ru/20188296


Last edited by KIN on 10 Nov 2010, edited 1 time in total.

Top
 Profile E-mail  
 
 
PostPosted: 10 Nov 2010 
HAMMER
User avatar
Joined: 16 May 2009
Posts: 5477
Lоcаtion: Тверь
Age: 46
Name: Александр
:thanx:


Top
 Profile E-mail  
 
 
PostPosted: 23 Jul 2012 
Труъ
User avatar
Joined: 05 Oct 2008
Posts: 194
Lоcаtion: Saint Petersburg
Age: 45
Name: Jesse
:esel:


Top
 Profile  
 
 
PostPosted: 23 Jul 2012 
Хиппей (support team)
User avatar
Joined: 30 Jul 2007
Posts: 111813
Lоcаtion: Киев (Kyiv, UA)
Age: 45
Name: Andrey
:esel: = перелить? :fingal:

_________________


Top
 Profile E-mail  
 
 
PostPosted: 23 Jul 2012 
Труъ
User avatar
Joined: 05 Oct 2008
Posts: 194
Lоcаtion: Saint Petersburg
Age: 45
Name: Jesse
ага, ссылка помэрла. :dash:


Top
 Profile  
 
 
PostPosted: 28 Jul 2012 
Хиппей (support team)
User avatar
Joined: 30 Jul 2007
Posts: 111813
Lоcаtion: Киев (Kyiv, UA)
Age: 45
Name: Andrey
Угу, ок. А интересует исключительно это переиздание?

_________________


Top
 Profile E-mail  
 
 
PostPosted: 28 Jul 2012 
Труъ
User avatar
Joined: 05 Oct 2008
Posts: 194
Lоcаtion: Saint Petersburg
Age: 45
Name: Jesse
Нет, не обязательно. Свой диск пришлось продать, и переписать не успел, т.ч. в данный момент любое издание вполне сойдет.


Top
 Profile  
 
 
PostPosted: 28 Jul 2012 
found here
http://www.mediaboom.org/359161-gravest ... 16441.html :true:


Top
  
 
 
PostPosted: 28 Jul 2012 
Хиппей (support team)
User avatar
Joined: 30 Jul 2007
Posts: 111813
Lоcаtion: Киев (Kyiv, UA)
Age: 45
Name: Andrey
Если верить надписи, то там винил-рип :pardon:
Vinyl rip

_________________


Top
 Profile E-mail  
 
 
PostPosted: 13 Aug 2012 
***


Last edited by Вася_металлист_2012 on 14 Dec 2012, edited 1 time in total.

Top
  
 
 
PostPosted: 16 Aug 2012 
Труъ
User avatar
Joined: 05 Oct 2008
Posts: 194
Lоcаtion: Saint Petersburg
Age: 45
Name: Jesse
:thanx:


Top
 Profile  
 
Display posts from previous:  Sort by  
Post new topic Reply to topic  [ 11 posts ] 

All times are UTC + 3 hours


Who is online

Users browsing this forum: No registered users and 1 guest


You cannot post new topics in this forum
You cannot reply to topics in this forum
You cannot edit your posts in this forum
You cannot delete your posts in this forum
You cannot post attachments in this forum

Search for:
Яндекс.Метрика
Powered by phpBB © 2000, 2002, 2005, 2007 phpBB Group