\m/ 80's metal \m/

Информационно-аналитический форум "80 см пыли" (In Search We Trust) "У нас никто никуда не спешит"
Me For You - http://me-4u.com
It is currently 16 Feb 2019

All times are UTC + 3 hours

Spoiler
Chat - temporary registration for foreign users (please leave your application here)







Post new topic Reply to topic  [ 10 posts ] 
Author Message
 
PostPosted: 08 Oct 2010 
5cm
User avatar
Joined: 01 Mar 2009
Posts: 61
Name: Сергей
Image
Year: 1985 (1st press)
Style: Heavy Metal
Country: Germany
Audio: APE + Cue + Log
Covers: Front, Back, Inside
Size: 320 Mb
Label: in-akustik GmbH (inak 858 cd)

Tracklist:
1. I Love The Night
2. The Tiger
3. Back To Attack
4. Break Out
5. Menuett
6. Won't Stop Rocking
7. Dirty Tales
8. Suicide
9. You Are The Sun
10. Rock'n'roll Is Easy (Live)
11. Son Of The Freeway (Live)

EAC log
Exact Audio Copy V0.99 prebeta 5 from 4. May 2009

EAC extraction logfile from 18. September 2010, 10:08

Gravestone / Back to Attack

Used drive : PIONEER DVD-RW DVR-216D Adapter: 2 ID: 0

Read mode : Secure
Utilize accurate stream : Yes
Defeat audio cache : Yes
Make use of C2 pointers : No

Read offset correction : 96
Overread into Lead-In and Lead-Out : No
Fill up missing offset samples with silence : Yes
Delete leading and trailing silent blocks : No
Null samples used in CRC calculations : Yes
Used interface : Native Win32 interface for Win NT & 2000

Used output format : Monkey's Audio Lossless Encoder
Selected bitrate : High Lossless Compression
Quality : High
Add ID3 tag : Yes
Command line compressor : C:\Programmi\Exact Audio Copy\MAC.EXE


TOC of the extracted CD

Track | Start | Length | Start sector | End sector
---------------------------------------------------------
1 | 0:00.33 | 3:56.25 | 33 | 17757
2 | 3:56.58 | 5:10.62 | 17758 | 41069
3 | 9:07.45 | 3:49.60 | 41070 | 58304
4 | 12:57.30 | 6:19.28 | 58305 | 86757
5 | 19:16.58 | 1:07.37 | 86758 | 91819
6 | 20:24.20 | 3:57.38 | 91820 | 109632
7 | 24:21.58 | 4:28.70 | 109633 | 129802
8 | 28:50.53 | 5:00.17 | 129803 | 152319
9 | 33:50.70 | 4:07.23 | 152320 | 170867
10 | 37:58.18 | 4:19.00 | 170868 | 190292
11 | 42:17.18 | 3:55.30 | 190293 | 207947


Range status and errors

Selected range

Filename C:\Documents and Settings\oem\Documenti\Musica\Gravestone - Back to Attack\Gravestone - Back to Attack.wav

Peak level 81.2 %
Range quality 100.0 %
Copy CRC FC01A937
Copy OK

No errors occurred

End of status report


За рип СПАСИБО rockberto, выложившему по моей просьбе этот альбом на mmt!

NAROD


Top
 Profile  
 
 
PostPosted: 08 Oct 2010 
А может смените мне статус?..
User avatar
Joined: 08 Nov 2007
Posts: 634
Lоcаtion: Crimea, UA
Age: 32
Name: Анатолий
fantafan, rockberto
:thanx: :true:
Благодарности!


Top
 Profile  
 
 
PostPosted: 09 Oct 2010 
Thrasher
User avatar
Joined: 07 Oct 2007
Posts: 2759
Lоcаtion: Russia, Moscow
Age: 35
Name: Drunk & Evil
:true: :thanx:

_________________
ВОДКА, БАБЫ И БЛЮЗ / 40° till death... :bodun:
One time we saw some hookers, but when we got closer, we realised it was Mötley Crüe. ©


Top
 Profile  
 
 
PostPosted: 09 Oct 2010 
Хиппей (support team)
User avatar
Joined: 30 Jul 2007
Posts: 110287
Lоcаtion: Киев (Kyiv, UA)
Age: 45
Name: Andrey
:true:

_________________


Top
 Profile E-mail  
 
 
PostPosted: 13 Aug 2012 
***


Last edited by Вася_металлист_2012 on 14 Dec 2012, edited 1 time in total.

Top
  
 
 
PostPosted: 13 Aug 2012 
***


Last edited by Вася_металлист_2012 on 14 Dec 2012, edited 1 time in total.

Top
  
 
 
PostPosted: 14 Aug 2012 
Хиппей (support team)
User avatar
Joined: 30 Jul 2007
Posts: 110287
Lоcаtion: Киев (Kyiv, UA)
Age: 45
Name: Andrey
:thanx:

Закон отзывчивости - пока сам себе не поможешь, хрен кто пошевелится :dance:

_________________


Top
 Profile E-mail  
 
 
PostPosted: 30 Jan 2014 
\m/ 80 см сала \m/
User avatar
Joined: 12 Mar 2012
Posts: 2589
Age: 25
Name: Nick
У кого остался рип с этого издания - перезалейте пожалуйста :thanx:

_________________
1990 AUROPHON BRAINSTORM (Germany) - lossless
1994 MAUSOLEUM CLASSIX (Belgium-Germany) - lossless
1998 VA - GRIM HARVEST - Complete Metal Massacre Volumes I-XII


Top
 Profile  
 
 
PostPosted: 30 Jan 2014 
Хиппей (support team)
User avatar
Joined: 30 Jul 2007
Posts: 110287
Lоcаtion: Киев (Kyiv, UA)
Age: 45
Name: Andrey
Ща попробую :lloo:

_________________


Top
 Profile E-mail  
 
 
PostPosted: 30 Jan 2014 
Хиппей (support team)
User avatar
Joined: 30 Jul 2007
Posts: 110287
Lоcаtion: Киев (Kyiv, UA)
Age: 45
Name: Andrey
mirror: Narod l M-Cloud

_________________


Top
 Profile E-mail  
 
Display posts from previous:  Sort by  
Post new topic Reply to topic  [ 10 posts ] 

All times are UTC + 3 hours


Who is online

Users browsing this forum: No registered users and 1 guest


You cannot post new topics in this forum
You cannot reply to topics in this forum
You cannot edit your posts in this forum
You cannot delete your posts in this forum
You cannot post attachments in this forum

Search for:
Яндекс.Метрика
Powered by phpBB © 2000, 2002, 2005, 2007 phpBB Group