\m/ 80's metal \m/

Информационно-аналитический форум "80 см пыли" (In Search We Trust) "У нас никто никуда не спешит"
Me For You - http://me-4u.com
It is currently 17 Feb 2019

All times are UTC + 3 hours

Spoiler
Chat - temporary registration for foreign users (please leave your application here)







Post new topic Reply to topic  [ 6 posts ] 
Author Message
 
PostPosted: 20 Sep 2010 
ыыыы
User avatar
Joined: 17 May 2009
Posts: 952
Lоcаtion: Пушкино, МО
Age: 40
Name: Дмитрий
Image


Жанр: Hard Rock
Происхождение исполнителя: Ирландия
Год издания: 1989
Год издания данного носителя: 1989
Страна-производитель носителя: Япония
Аудио кодек: FLAC
Тип рипа: image+.cue
Битрейт аудио: lossless
Продолжительность: 53:17
Рип: Собственный
Лейбл: VIRGIN
Каталоговый номер: VJD-32105
Матрица: VJD-32105-1-A1E 11 (JVC)

Треклист:
1. Dunluce Pt. 1 (instrumental) 01:18
2. After the War 04:17
3. Speak for Yourself 03:43
4. Livin' on Dreams 04:14
5. Led Clones 06:09
6. The Messiah Will Come Again (instrumental) 07:32
7. Running from the Storm 04:46
8. This Thing Called Love 03:22
9. Ready for Love 05:43
10. Blood of Emeralds 08:19
11. Dunluce Pt. 2 (instrumental) 03:52

"Куй"
REM GENRE "Hard Rock"
REM DATE 1989
REM DISCID 940C7D0B
REM COMMENT "ExactAudioCopy v0.99pb5"
PERFORMER "Gary Moore"
TITLE "After The War [VJD-32105]"
FILE "Gary Moore - After The War [VJD-32105].flac" WAVE
TRACK 01 AUDIO
TITLE "Dunluce (Part 1)"
PERFORMER "Gary Moore"
INDEX 00 00:00:00
INDEX 01 00:00:37
TRACK 02 AUDIO
TITLE "After The War"
PERFORMER "Gary Moore"
INDEX 01 01:18:50
TRACK 03 AUDIO
TITLE "Speak For Yourself"
PERFORMER "Gary Moore"
INDEX 01 05:36:12
TRACK 04 AUDIO
TITLE "Livin' On Dreams"
PERFORMER "Gary Moore"
INDEX 00 09:18:73
INDEX 01 09:19:00
TRACK 05 AUDIO
TITLE "Led Clones"
PERFORMER "Gary Moore"
INDEX 00 13:33:23
INDEX 01 13:33:25
TRACK 06 AUDIO
TITLE "The Messiah Will Come Again"
PERFORMER "Gary Moore"
INDEX 00 19:40:50
INDEX 01 19:42:50
TRACK 07 AUDIO
TITLE "Running From The Storm"
PERFORMER "Gary Moore"
INDEX 00 27:12:51
INDEX 01 27:14:52
TRACK 08 AUDIO
TITLE "This Thing Called Love"
PERFORMER "Gary Moore"
INDEX 01 32:00:65
TRACK 09 AUDIO
TITLE "Ready For Love"
PERFORMER "Gary Moore"
INDEX 01 35:23:12
TRACK 10 AUDIO
TITLE "Blood Of Emeralds"
PERFORMER "Gary Moore"
INDEX 00 41:03:41
INDEX 01 41:06:42
TRACK 11 AUDIO
TITLE "Dunluce (Part 2)"
PERFORMER "Gary Moore"
INDEX 01 49:25:4


"Лог"
Exact Audio Copy V0.99 prebeta 5 from 4. May 2009

Отчёт EAC об извлечении, выполненном 20. сентября 2010, 20:18

Gary Moore / After The War [VJD-32105]

Дисковод: MATSHITADVD-RAM UJ-850S Adapter: 0 ID: 0

Режим чтения : Достоверность
Использование точного потока : Да
Отключение кэша аудио : Да
Использование указателей C2 : Нет

Коррекция смещения при чтении : 102
Способность читать области Lead-in и Lead-out : Нет
Заполнение пропущенных сэмплов тишиной : Да
Удаление блоков с тишиной в начале и конце : Нет
При вычислениях CRC использовались нулевые сэмплы : Да
Интерфейс : Установленный внешний ASPI-интерфейс

Выходной формат : Пользовательский кодировщик
Выбранный битрейт : 128 kBit/s
Качество : Высокий
Добавление ID3-тэга : Нет
Утилита сжатия : C:\Program Files\Exact Audio Copy\Flac\flac.exe
Дополнительные параметры : -6 -V -T "artist=%a" -T "title=%t" -T "album=%g" -T "date=%y" -T "tracknumber=%n" -T "genre=%m" -T "comment=EAC 0.99beta5 / FLAC 1.1.0 q6" %s


TOC извлечённого CD

Трек | Старт | Длительность | Начальный сектор | Конечный сектор
---------------------------------------------------------------------
1 | 0:00.37 | 1:18.13 | 37 | 5899
2 | 1:18.50 | 4:17.37 | 5900 | 25211
3 | 5:36.12 | 3:42.63 | 25212 | 41924
4 | 9:19.00 | 4:14.25 | 41925 | 60999
5 | 13:33.25 | 6:09.25 | 61000 | 88699
6 | 19:42.50 | 7:32.02 | 88700 | 122601
7 | 27:14.52 | 4:46.13 | 122602 | 144064
8 | 32:00.65 | 3:22.22 | 144065 | 159236
9 | 35:23.12 | 5:43.30 | 159237 | 184991
10 | 41:06.42 | 8:19.03 | 184992 | 222419
11 | 49:25.45 | 3:51.67 | 222420 | 239811


Характеристики диапазона извлечения и сообщения об ошибках

Выбранный диапазон

Имя файла Y:\Музыка\Gary Moore\1989 After The War\Gary Moore - After The War [VJD-32105].wav

Пиковый уровень 100.0 %
Качество диапазона 99.9 %
CRC копии 96187800
Копирование... OK

Ошибок не произошло


AccurateRip: сводка

Трек 1 точное извлечение (доверие 1) [43EEC2B9]
Трек 2 точность не определена (достоверность 1) [AE5E1BFA], AccurateRip вернул [0B621870]
Трек 3 точность не определена (достоверность 1) [ACC1BE4F], AccurateRip вернул [2E57A0FF]
Трек 4 точное извлечение (доверие 1) [3A68282B]
Трек 5 точное извлечение (доверие 1) [BDABD9BE]
Трек 6 точное извлечение (доверие 1) [6B95C80F]
Трек 7 точное извлечение (доверие 1) [4F33A02F]
Трек 8 точное извлечение (доверие 1) [074CD40C]
Трек 9 точное извлечение (доверие 1) [4863B633]
Трек 10 точное извлечение (доверие 1) [E460CB38]
Трек 11 точное извлечение (доверие 1) [FFE99382]

9 трек(и) скопированы точно
2 трек(и) не удалось проверить на точность

Некоторые треки не прошли проверку на точность

Конец отчёта


Состав:
Gary Moore: Guitars, lead vocals
Neil Carter: Keyboards, backing vocals
Bob Daisley: Bass
Cozy Powell: Drums
Don Airey: Keyboards on "The Messiah Will Come Again", "Running from the Storm" and "This Thing Called Love"
Laurence Cottle: Bass on "The Messiah Will Come Again"
Charlie Morgan: Drums on "After the War"
Simon Phillips: Drums on "Speak for Yourself" and "Blood of Emeralds"
Chris Thompson: Backing vocals on "After the War", "Led Clones" and "Ready for Love", violin on "Led Clones"
Ozzy Osbourne: Lead vocals on "Led Clones", backing vocals on "Speak For Yourself"
Andrew Eldritch: Backing vocals on "After the War", "Speak for Yourself" and "Blood of Emeralds"
Sam Brown: Backing vocals on "Ready for Love"
Miriam Stockley: Backing vocals on "Ready for Love"

VJD-32105

_________________
Витасу до Даймонда как Алсу до Руссоса | При переразмещении - спрашивать разрешение!!


Top
 Profile  
 
 
PostPosted: 20 Sep 2010 
metallpaparazzy
User avatar
Joined: 20 Dec 2009
Posts: 674
Lоcаtion: Днепропетровск
Age: 43
Name: Геннадий
:thanx:
хороший альбом :true:
9 10 2010 пойду, посмотрю, как нуна блюззз лабать... :punko: :oldman:


Top
 Profile E-mail  
 
 
PostPosted: 20 Sep 2010 
ыыыы
User avatar
Joined: 17 May 2009
Posts: 952
Lоcаtion: Пушкино, МО
Age: 40
Name: Дмитрий
к нам вроде тоже приезжает! :true:
Старый уже, блин! свидетель времени :meloman:
ЭЭэгм...любителям перепроверять :nunu: Каталожный номер образован из сотен йен (32) и собссно порядкового номера (105). Видимо, Вирджин только в конце 88 г. выделил собственное производство в Японии

_________________
Витасу до Даймонда как Алсу до Руссоса | При переразмещении - спрашивать разрешение!!


Top
 Profile  
 
 
PostPosted: 20 Sep 2010 
Персональный статус
Joined: 14 May 2010
Posts: 236
Age: 37
Name: Денис
Sam Brown: Backing vocals on "Ready for Love"
Miriam Stockley: Backing vocals on "Ready for Love"

Знатные тётки. С Сэм давно всё ясно, а вот Miriam с Queen записывалась и Мэем.


Top
 Profile  
 
 
PostPosted: 20 Sep 2010 
Хиппей (support team)
User avatar
Joined: 30 Jul 2007
Posts: 110295
Lоcаtion: Киев (Kyiv, UA)
Age: 45
Name: Andrey
:thanx:

_________________


Top
 Profile E-mail  
 
 
PostPosted: 21 Sep 2010 
Генеральный thrasher
User avatar
Joined: 03 Oct 2008
Posts: 3593
Lоcаtion: Ханты-Мансийский АО
Age: 43
Name: Сергей
:thanx:


Top
 Profile  
 
Display posts from previous:  Sort by  
Post new topic Reply to topic  [ 6 posts ] 

All times are UTC + 3 hours


Who is online

Users browsing this forum: No registered users and 3 guests


You cannot post new topics in this forum
You cannot reply to topics in this forum
You cannot edit your posts in this forum
You cannot delete your posts in this forum
You cannot post attachments in this forum

Search for:
Яндекс.Метрика
Powered by phpBB © 2000, 2002, 2005, 2007 phpBB Group