\m/ 80's metal \m/

Информационно-аналитический форум "80 см пыли" (In Search We Trust) "У нас никто никуда не спешит"
Me For You - http://me-4u.com
It is currently 19 Jul 2019

All times are UTC + 3 hours

Spoiler
Chat - temporary registration for foreign users (please leave your application here)







Post new topic Reply to topic  [ 9 posts ] 
Author Message
 
PostPosted: 18 Sep 2010 
ыыыы
User avatar
Joined: 17 May 2009
Posts: 952
Lоcаtion: Пушкино, МО
Age: 40
Name: Дмитрий
Image


Жанр: Hard Rock
Происхождение исполнителя: США
Год издания: 1992
Год издания данного носителя: 1992
Страна-производитель носителя: Япония
Аудио кодек: FLAC
Тип рипа: image+.cue
Битрейт аудио: lossless
Продолжительность: 66:07
Рип: Собственный
Лейбл: CAPITOL/PONY CANYON
Каталоговый номер: PCCY-00372
Матрица: PCCY-00372 1 (SONY)

Треклист:
1. Psycho City 06:07
2. Step On You 05:50
3. Old Rose Motel 07:24
4. Maybe Someday 07:24
5. Big Goodbye 05:58
6. Doctor Me 06:14
7. I Want You 03:42
8. Never Trust A Pretty Face 05:30
9. Love Is A Lie 08:15
10. Get On Home 05:26
11. Somebody To Love 04:17

"Куй"
REM GENRE "Hard Rock"
REM DATE 1992
REM DISCID A40F7E0B
REM COMMENT "ExactAudioCopy v0.99pb5"
PERFORMER "Great White"
TITLE "Psycho City [PCCY-00372]"
FILE "Great White - Psycho City [PCCY-00372].flac" WAVE
TRACK 01 AUDIO
TITLE "Psycho City"
PERFORMER "Great White"
INDEX 01 00:00:00
TRACK 02 AUDIO
TITLE "Step On You"
PERFORMER "Great White"
INDEX 01 06:06:70
TRACK 03 AUDIO
TITLE "Old Rose Motel"
PERFORMER "Great White"
INDEX 01 11:57:15
TRACK 04 AUDIO
TITLE "Maybe Someday"
PERFORMER "Great White"
INDEX 01 19:21:45
TRACK 05 AUDIO
TITLE "Big Goodbye"
PERFORMER "Great White"
INDEX 00 26:44:27
INDEX 01 26:45:47
TRACK 06 AUDIO
TITLE "Doctor Me"
PERFORMER "Great White"
INDEX 01 32:43:35
TRACK 07 AUDIO
TITLE "I Want You"
PERFORMER "Great White"
INDEX 01 38:57:15
TRACK 08 AUDIO
TITLE "Never Trust A Pretty Face"
PERFORMER "Great White"
INDEX 01 42:38:72
TRACK 09 AUDIO
TITLE "Love Is A Lie"
PERFORMER "Great White"
INDEX 00 48:06:27
INDEX 01 48:08:72
TRACK 10 AUDIO
TITLE "Get On Home"
PERFORMER "Great White"
INDEX 00 56:22:72
INDEX 01 56:24:07
TRACK 11 AUDIO
TITLE "Somebody To Love"
PERFORMER "Great White"
INDEX 01 61:50:05


"Лог"
Exact Audio Copy V0.99 prebeta 5 from 4. May 2009

Отчёт EAC об извлечении, выполненном 18. сентября 2010, 17:07

Great White / Psycho City [PCCY-00372]

Дисковод: MATSHITADVD-RAM UJ-850S Adapter: 0 ID: 0

Режим чтения : Достоверность
Использование точного потока : Да
Отключение кэша аудио : Да
Использование указателей C2 : Нет

Коррекция смещения при чтении : 102
Способность читать области Lead-in и Lead-out : Нет
Заполнение пропущенных сэмплов тишиной : Да
Удаление блоков с тишиной в начале и конце : Нет
При вычислениях CRC использовались нулевые сэмплы : Да
Интерфейс : Установленный внешний ASPI-интерфейс

Выходной формат : Пользовательский кодировщик
Выбранный битрейт : 128 kBit/s
Качество : Высокий
Добавление ID3-тэга : Нет
Утилита сжатия : C:\Program Files\Exact Audio Copy\Flac\flac.exe
Дополнительные параметры : -6 -V -T "artist=%a" -T "title=%t" -T "album=%g" -T "date=%y" -T "tracknumber=%n" -T "genre=%m" -T "comment=EAC 0.99beta5 / FLAC 1.1.0 q6" %s


TOC извлечённого CD

Трек | Старт | Длительность | Начальный сектор | Конечный сектор
---------------------------------------------------------------------
1 | 0:00.00 | 6:06.70 | 0 | 27519
2 | 6:06.70 | 5:50.20 | 27520 | 53789
3 | 11:57.15 | 7:24.30 | 53790 | 87119
4 | 19:21.45 | 7:24.02 | 87120 | 120421
5 | 26:45.47 | 5:57.63 | 120422 | 147259
6 | 32:43.35 | 6:13.55 | 147260 | 175289
7 | 38:57.15 | 3:41.57 | 175290 | 191921
8 | 42:38.72 | 5:30.00 | 191922 | 216671
9 | 48:08.72 | 8:15.10 | 216672 | 253806
10 | 56:24.07 | 5:25.73 | 253807 | 278254
11 | 61:50.05 | 4:16.60 | 278255 | 297514


Характеристики диапазона извлечения и сообщения об ошибках

Выбранный диапазон

Имя файла Y:\Музыка\Great White\1992 Psycho City\Great White - Psycho City [PCCY-00372].wav

Пиковый уровень 100.0 %
Качество диапазона 99.9 %
CRC копии 2A1D95FF
Копирование... OK

Ошибок не произошло


AccurateRip: сводка

Трек 1 точное извлечение (доверие 1) [A4F78E31]
Трек 2 точное извлечение (доверие 1) [B8745A42]
Трек 3 точное извлечение (доверие 1) [60B43DA1]
Трек 4 точное извлечение (доверие 1) [BC9E7EAB]
Трек 5 точное извлечение (доверие 1) [CFAE16A6]
Трек 6 точное извлечение (доверие 1) [3F09CBE5]
Трек 7 точное извлечение (доверие 1) [36EA2B9E]
Трек 8 точное извлечение (доверие 1) [09461F9E]
Трек 9 точное извлечение (доверие 1) [83C3C1C0]
Трек 10 точное извлечение (доверие 1) [26A2E0B1]
Трек 11 точное извлечение (доверие 1) [AFE1D5F2]

Все треки извлечены точно

Конец отчёта


Состав:
Jack Russell: Vocals
Mark Kendall: Guitar
Michael Lardie: Guitar, keyboards
Audie Desbrow: Drums
Alan Niven: Drums & background vocals
Dave "The Beast" Spitz: Bass
Richie Gajate Garcia: Percussion
Rick Brewster: Guitar

PCCY-00372

_________________
Витасу до Даймонда как Алсу до Руссоса | При переразмещении - спрашивать разрешение!!


Last edited by iezuit on 18 Sep 2010, edited 1 time in total.

Top
 Profile  
 
 
PostPosted: 18 Sep 2010 
Old Time Rock`n`Roll
User avatar
Joined: 23 Jun 2008
Posts: 3461
Lоcаtion: г.Ульяновск
Age: 40
Name: Константин
Последний из 4-х альбомов экстра-класса, выпущенных группой подряд в 1987-1992 гг. Вот за это я и считаю Great White лучшей американской хардовой командой второй половины 80-х - начала 90-х, 4 диска кряду такого уровня никто больше не смог выпустить.
Первый альбом на котором группа сильно в сторону блюза-харда отошла, Кендалл со своей гитарой здесь оторвался, а Лэрди дополнил саунд более натуральным звучанием клавишных под фортепиано. Love Is A Lie - первоклассная баллада.
Спасибо :thanx:


Top
 Profile  
 
 
PostPosted: 18 Sep 2010 
Труъ
User avatar
Joined: 14 Jul 2010
Posts: 104
Lоcаtion: Украина, Донецк
Age: 34
Name: Санёк
Весьма и весьма неплохая пластинка. До этого никогда не слышал этих янки. Альбом очень порадовал блюзовым духом американской провинции. Музыка очень профессиональная и зрелая, хотя порой что-то ненавязчиво напоминает. В остальном одни плюсы. Спасибо за столь приятное знакомство, Дмитрий.

_________________
Rock 'N' Roll is the only thing that keeps me from breaking apart (c)


Top
 Profile E-mail  
 
 
PostPosted: 18 Sep 2010 
Персональный статус
Joined: 14 May 2010
Posts: 236
Age: 37
Name: Денис
да, согласен с предыдущими людьми. очень уютная пластинка.


Top
 Profile  
 
 
PostPosted: 18 Sep 2010 
Хиппей (support team)
User avatar
Joined: 30 Jul 2007
Posts: 113547
Lоcаtion: Киев (Kyiv, UA)
Age: 46
Name: Andrey
А клипы какие у ниш здесь шикарные были мммм... Никогда не любил клипы, но видосы этой команды надолго врезаются в память и не стареют.
Спасибо за лося :thanx:

_________________


Top
 Profile E-mail  
 
 
PostPosted: 18 Sep 2010 
ыыыы
User avatar
Joined: 17 May 2009
Posts: 952
Lоcаtion: Пушкино, МО
Age: 40
Name: Дмитрий
только женщины в них не менялись (((

_________________
Витасу до Даймонда как Алсу до Руссоса | При переразмещении - спрашивать разрешение!!


Top
 Profile  
 
 
PostPosted: 19 Sep 2010 
Хиппей (support team)
User avatar
Joined: 30 Jul 2007
Posts: 113547
Lоcаtion: Киев (Kyiv, UA)
Age: 46
Name: Andrey
Да? Хм, не замечал. Может просто денег на других не было? :vic:

_________________


Top
 Profile E-mail  
 
 
PostPosted: 19 Sep 2010 
Old Time Rock`n`Roll
User avatar
Joined: 23 Jun 2008
Posts: 3461
Lоcаtion: г.Ульяновск
Age: 40
Name: Константин
iezuit wrote:
только женщины в них не менялись (((


Это в роликах по 1987 г. одна и таже актриса снималась, видимо пример с Уайтснейк и Тони Китэн был слишком заразителен. Дальше пошло разнообразие))) Девушки в клипах симпатичные почти как в роликах ZZ Top)))


Top
 Profile  
 
 
PostPosted: 30 Jan 2011 
хард н хэвщик (support team)
User avatar
Joined: 02 Jun 2008
Posts: 16881
Lоcаtion: Н.Новгород
Age: 32
Name: Артем
iezuit wrote:
3. Old Rose Motel 07:24

:true: любимая вещь с альбома


Top
 Profile  
 
Display posts from previous:  Sort by  
Post new topic Reply to topic  [ 9 posts ] 

All times are UTC + 3 hours


Who is online

Users browsing this forum: No registered users and 1 guest


You cannot post new topics in this forum
You cannot reply to topics in this forum
You cannot edit your posts in this forum
You cannot delete your posts in this forum
You cannot post attachments in this forum

Search for:
Яндекс.Метрика
Powered by phpBB © 2000, 2002, 2005, 2007 phpBB Group