\m/ 80's metal \m/

Информационно-аналитический форум "80 см пыли" (In Search We Trust) "У нас никто никуда не спешит"
Me For You - http://me-4u.com
It is currently 19 Feb 2019

All times are UTC + 3 hours

Spoiler
Chat - temporary registration for foreign users (please leave your application here)







Post new topic Reply to topic  [ 18 posts ] 
Author Message
 
PostPosted: 16 Jul 2010 
Работнечег
User avatar
Joined: 28 Aug 2007
Posts: 5717
Lоcаtion: г. Москва
Age: 29
Name: Дима
Goldsmith - Life Is Killing Me (Comp.)(2004)

Image

Band: Goldsmith
Album: Life Is Killing Me (Compilation)
Label: Obscure NWOBHM Releases
Genre: NWOBHM
Coutry: UK
Format: Flac + Log + Cue + Covers
Size: 356 Mb

Line-Up:
Perry "Pez" Hodder - vocals, guitar (Bitches Sin)
Pete Adams - guitar
Glen Milligan - bass
Mike Henderson - drums


Tracklist:
1. Life Is Killing Me 04:13
2. Please Don't 03:41
3. You Won't Catch Me 03:34
4. Fly Away 03:36
5. Music Man 03:31
6. All I Want 04:39
7. Pretty Dancer 03:52
8. No Way Out 07:19
9. Everybody Needs It 05:13
10. Give Me Your Love 04:23
11. Evil Woman 05:47
Total playing time 49:48

Краткая биография из буклета
Goldsmith были сформированы в 1981 году Perry "Pez" Hodder'ом после того как он покинул камберлендскую (Камберленд - бывшее графство в Англии) NWOBHM группу Bitches Sin.Оригинальный состав группы состоял из трёх человек:Perry "Pez" Hodder - вокал/гитара, Glen Milligan - басс,Mike Henderson - барабаны.Совсем скоро к группе прибавился второй гитарист Pete Adams.Группа быстро записала свой первый сингл Life Is Killing Me (1982), после интереса, проявленного к их демо-кассете.Сингл был выпущен на Bedlam label и сейчас стал большой редкостью.Он получил одобрение в колонке Geoff Barton'а в журнале "Sounds", а также множество восторженных отзывов из европейских журналов, посвящённых NWOBHM.В то время,как Goldsmith приравняли к группе, играющей хэви-металл, благодаря их синглу и времени в которое группа существовала, на самом деле они были больше хэви-рок (?) группой с такими гимнами, как Evil Woman с её медленным темпом , переходящим в стремительное соло в конце песни.Они могли действительно зажигать, послушайте Give Me Your Love и Don't Won't Catch Me для доказательства этого.
Группа записала 3 отдельные сессии, которые так и не были выпущены.Все они были ремастированы и появились на этом диске впервые.

Spectrum
Image


LOG
Exact Audio Copy V0.99 prebeta 5 from 4. May 2009

EAC extraction logfile from 8. July 2010, 20:14

Goldsmith / Life Is Killing Me

Used drive : PIONEER DVD-RW DVR-116D Adapter: 0 ID: 0

Read mode : Secure
Utilize accurate stream : Yes
Defeat audio cache : Yes
Make use of C2 pointers : No

Read offset correction : 96
Overread into Lead-In and Lead-Out : No
Fill up missing offset samples with silence : Yes
Delete leading and trailing silent blocks : No
Null samples used in CRC calculations : Yes
Used interface : Native Win32 interface for Win NT & 2000

Used output format : User Defined Encoder
Selected bitrate : 32 kBit/s
Quality : High
Add ID3 tag : No
Command line compressor : C:\Program Files\Exact Audio Copy\Flac\flac.exe
Additional command line options : -6 -V %s


TOC of the extracted CD

Track | Start | Length | Start sector | End sector
---------------------------------------------------------
1 | 0:00.00 | 4:13.19 | 0 | 18993
2 | 4:13.19 | 3:41.42 | 18994 | 35610
3 | 7:54.61 | 3:34.28 | 35611 | 51688
4 | 11:29.14 | 3:35.64 | 51689 | 67877
5 | 15:05.03 | 3:31.59 | 67878 | 83761
6 | 18:36.62 | 4:39.13 | 83762 | 104699
7 | 23:16.00 | 3:52.61 | 104700 | 122160
8 | 27:08.61 | 7:19.41 | 122161 | 155126
9 | 34:28.27 | 5:13.58 | 155127 | 178659
10 | 39:42.10 | 4:22.64 | 178660 | 198373
11 | 44:04.74 | 5:47.35 | 198374 | 224433


Range status and errors

Selected range

Filename D:\Музыка\Lossless\Goldsmith - Life Is Killing Me (Compilation) (2004)\Goldsmith - Life Is Killing Me.wav

Peak level 100.0 %
Range quality 99.9 %
Copy CRC 7CE8264C
Copy OK

No errors occurred


AccurateRip summary

Track 1 not present in database
Track 2 not present in database
Track 3 not present in database
Track 4 not present in database
Track 5 not present in database
Track 6 not present in database
Track 7 not present in database
Track 8 not present in database
Track 9 not present in database
Track 10 not present in database
Track 11 not present in database

None of the tracks are present in the AccurateRip database

End of status report


CUE
REM GENRE NWOBHM
REM DATE 2004
REM DISCID 950BB00B
REM COMMENT "ExactAudioCopy v0.99pb5"
PERFORMER "Goldsmith"
TITLE "Life Is Killing Me"
FILE "Goldsmith - Life Is Killing Me.flac" WAVE
TRACK 01 AUDIO
TITLE "Life Is Killing Me"
PERFORMER "Goldsmith"
FLAGS DCP
INDEX 01 00:00:00
TRACK 02 AUDIO
TITLE "Please Don't"
PERFORMER "Goldsmith"
FLAGS DCP
INDEX 01 04:13:19
TRACK 03 AUDIO
TITLE "You Won't Catch Me"
PERFORMER "Goldsmith"
FLAGS DCP
INDEX 01 07:54:61
TRACK 04 AUDIO
TITLE "Fly Away"
PERFORMER "Goldsmith"
FLAGS DCP
INDEX 01 11:29:14
TRACK 05 AUDIO
TITLE "Music Man"
PERFORMER "Goldsmith"
FLAGS DCP
INDEX 01 15:05:03
TRACK 06 AUDIO
TITLE "All I Want"
PERFORMER "Goldsmith"
FLAGS DCP
INDEX 01 18:36:62
TRACK 07 AUDIO
TITLE "Pretty Dancer"
PERFORMER "Goldsmith"
FLAGS DCP
INDEX 01 23:16:00
TRACK 08 AUDIO
TITLE "No Way Out"
PERFORMER "Goldsmith"
FLAGS DCP
INDEX 01 27:08:61
TRACK 09 AUDIO
TITLE "Everybody Needs It"
PERFORMER "Goldsmith"
FLAGS DCP
INDEX 01 34:28:27
TRACK 10 AUDIO
TITLE "Give Me Your Love"
PERFORMER "Goldsmith"
FLAGS DCP
INDEX 01 39:42:10
TRACK 11 AUDIO
TITLE "Evil Woman"
PERFORMER "Goldsmith"
FLAGS DCP
INDEX 01 44:04:74

Ifolder

Narod.ru (Mirror without cover)


Last edited by church on 23 Jul 2010, edited 1 time in total.

Top
 Profile E-mail  
 
 
PostPosted: 17 Jul 2010 
Хиппей (support team)
User avatar
Joined: 30 Jul 2007
Posts: 110327
Lоcаtion: Киев (Kyiv, UA)
Age: 45
Name: Andrey
Дима, спасибо! :thanx:

_________________


Top
 Profile E-mail  
 
 
PostPosted: 17 Jul 2010 
Прокъмитолист
User avatar
Joined: 12 Aug 2007
Posts: 6528
Lоcаtion: Санктъ-Петербуркъ
Age: 51
Name: Олекъ
спасибо, Дима! :thanx:

_________________
прокъметол - это музыко, от которово есть прок (ы)


Top
 Profile  
 
 
PostPosted: 17 Jul 2010 
Хиппей (support team)
User avatar
Joined: 30 Jul 2007
Posts: 110327
Lоcаtion: Киев (Kyiv, UA)
Age: 45
Name: Andrey
Дима, спасибо! :thanx:

_________________


Top
 Profile E-mail  
 
 
PostPosted: 17 Jul 2010 
Прокъмитолист
User avatar
Joined: 12 Aug 2007
Posts: 6528
Lоcаtion: Санктъ-Петербуркъ
Age: 51
Name: Олекъ
Андрюха, спасибо за спасибо! :true: :crazy:

_________________
прокъметол - это музыко, от которово есть прок (ы)


Top
 Profile  
 
 
PostPosted: 17 Jul 2010 
Хиппей (support team)
User avatar
Joined: 30 Jul 2007
Posts: 110327
Lоcаtion: Киев (Kyiv, UA)
Age: 45
Name: Andrey
Спасибо, Олежка, за наши спасибо Димке :true:

_________________


Top
 Profile E-mail  
 
 
PostPosted: 17 Jul 2010 
А может смените мне статус?..
Joined: 03 Jul 2009
Posts: 853
Lоcаtion: Serbia
Name: Laki
Thank you !!!!


Top
 Profile E-mail  
 
 
PostPosted: 19 Jul 2010 
Труъ
User avatar
Joined: 14 Jul 2009
Posts: 158
Lоcаtion: Hell Is Here
Age: 48
Name: Adriano
Many Thanx !! :thanx:


Top
 Profile E-mail  
 
 
PostPosted: 09 Oct 2014 
Пионэръ
User avatar
Joined: 28 Mar 2013
Posts: 12
Lоcаtion: UK
Name: Keith
Link is dead :( Can anyone re-up?


Top
 Profile E-mail  
 
 
PostPosted: 09 Oct 2014 
Хиппей (support team)
User avatar
Joined: 30 Jul 2007
Posts: 110327
Lоcаtion: Киев (Kyiv, UA)
Age: 45
Name: Andrey
church

Дим, не помнишь, на Яндекс вроде ж я перезаливал лосика? :vic:
Не найду его у себя в аккаунте :fingal:

_________________


Top
 Profile E-mail  
 
 
PostPosted: 11 Oct 2014 
Работнечег
User avatar
Joined: 28 Aug 2007
Posts: 5717
Lоcаtion: г. Москва
Age: 29
Name: Дима
church

Дим, не помнишь, на Яндекс вроде ж я перезаливал лосика? :vic:
Не найду его у себя в аккаунте :fingal:

Не помню, Андрюх.. думаю, что тогда еще далеко не все перезаливал, это ты уже позже стал на все зеркала делать.. Перезалью недели через 2,5, как с Питера приеду)


Top
 Profile E-mail  
 
 
PostPosted: 11 Oct 2014 
Хиппей (support team)
User avatar
Joined: 30 Jul 2007
Posts: 110327
Lоcаtion: Киев (Kyiv, UA)
Age: 45
Name: Andrey
Дим заранее спасибо. Я этот альбом точно переливал - вижу по имени архива. Ща для подтверждения поищу в черновиках писем ссылку :dance:

_________________


Top
 Profile E-mail  
 
 
PostPosted: 11 Oct 2014 
Хиппей (support team)
User avatar
Joined: 30 Jul 2007
Posts: 110327
Lоcаtion: Киев (Kyiv, UA)
Age: 45
Name: Andrey
Пусто в черновиках за июль 10 года у меня :fingal:

_________________


Top
 Profile E-mail  
 
 
PostPosted: 30 Oct 2014 
Работнечег
User avatar
Joined: 28 Aug 2007
Posts: 5717
Lоcаtion: г. Москва
Age: 29
Name: Дима
Зеркало


Top
 Profile E-mail  
 
 
PostPosted: 31 Oct 2014 
Хиппей (support team)
User avatar
Joined: 30 Jul 2007
Posts: 110327
Lоcаtion: Киев (Kyiv, UA)
Age: 45
Name: Andrey
:thanx:

mirror: Narod l M-Cloud

_________________


Top
 Profile E-mail  
 
 
PostPosted: 31 Oct 2014 
Пионэръ
User avatar
Joined: 28 Mar 2013
Posts: 12
Lоcаtion: UK
Name: Keith
Thanks man. Awesome comp :smile:


Top
 Profile E-mail  
 
 
PostPosted: 03 Nov 2014 
Хиппей (support team)
User avatar
Joined: 30 Jul 2007
Posts: 110327
Lоcаtion: Киев (Kyiv, UA)
Age: 45
Name: Andrey
Приятный и бодрый ракиндроллистый и классический NWOBHM/Heavy Metal :meloman:
Вот только вокал Перри Ходдера мне не нравитя здесь :pardon: Типичный он какой-то.

5/10

_________________


Top
 Profile E-mail  
 
 
PostPosted: 03 Nov 2014 
Я набрал 1000 сообщений!
Joined: 24 Oct 2009
Posts: 2165
Lоcаtion: Оренбург
Age: 55
Name: Юра
Спасибо! :thanx:

_________________
:dash: I am happy!


Top
 Profile E-mail  
 
Display posts from previous:  Sort by  
Post new topic Reply to topic  [ 18 posts ] 

All times are UTC + 3 hours


Who is online

Users browsing this forum: No registered users and 2 guests


You cannot post new topics in this forum
You cannot reply to topics in this forum
You cannot edit your posts in this forum
You cannot delete your posts in this forum
You cannot post attachments in this forum

Search for:
Яндекс.Метрика
Powered by phpBB © 2000, 2002, 2005, 2007 phpBB Group