\m/ 80's metal \m/

Информационно-аналитический форум "80 см пыли" (In Search We Trust) "У нас никто никуда не спешит"
Me For You - http://me-4u.com
It is currently 26 Apr 2019

All times are UTC + 3 hours

Spoiler
Chat - temporary registration for foreign users (please leave your application here)







Post new topic Reply to topic  [ 19 posts ] 
Author Message
 
PostPosted: 24 Apr 2010 
Power Metal Maniac
User avatar
Joined: 09 Aug 2008
Posts: 6676
Lоcаtion: Москва
Age: 41
Name: Егор
Ищу в lossless оба альбома французской Power-группы Guttural http://metal-archives.com/band.php?id=19751

Set Swords to Music (2003)

Image

1. Winged Messengers
2. The Kingdom of God
3. Festivity
4. Poetry
5. My Rash Ancestor
6. Forgive You Again
7. Best Answer
8. Spiritual Discovery
9. Vertiginously Whirlwind
10. Omnipresence of the Cross
11. Celestial Scouts (outro)
http://metal-archives.com/release.php?id=46257

Cross Words With Us (2004)

Image

1. The Four Lowing 16:44
2. Prologue 01:14
3. A Star In A Rainbow 05:50
4. The Forgotten Isle Castle 06:42
5. Distant World 04:54
6. Mr. Hypocrite and Mrs. Hatred 06:29
7. Vikland 08:21
Total playing time 50:14
http://metal-archives.com/release.php?id=59914

_________________
Long Live Metal!


Top
 Profile  
 
 
PostPosted: 15 Jul 2010 
Пионэръ
User avatar
Joined: 27 Jun 2009
Posts: 15
Lоcаtion: Москва
Age: 45
Name: Игорь Вячеславович
все альбомы Guttural также есть в доке HPML

_________________
Heavy & Power Metal Lossless


Top
 Profile E-mail  
 
 
PostPosted: 09 Dec 2010 
А может смените мне статус?..
User avatar
Joined: 28 Oct 2009
Posts: 662
Lоcаtion: Sweden
Age: 32
Name: Emil
I am looking for Cross Words With Us (2004) in any quality..

_________________
http://strappadometalblog.blogspot.com | http://heavymetalrarities.com/forum


Top
 Profile E-mail  
 
 
PostPosted: 03 Feb 2011 
Работнечег
User avatar
Joined: 28 Aug 2007
Posts: 5819
Lоcаtion: г. Москва
Age: 30
Name: Дима
Вот здесь Игорь выложил лося альбома 2004 года, говорим ему спасибо и качаем кому надо :smile:
Guttural - Cross Words With Us (2004) Lossless


Top
 Profile E-mail  
 
 
PostPosted: 03 Feb 2011 
Хиппей (support team)
User avatar
Joined: 30 Jul 2007
Posts: 111861
Lоcаtion: Киев (Kyiv, UA)
Age: 45
Name: Andrey
Посмотрел на морды лиц участников - явно не моя музыка :nea:

_________________


Top
 Profile E-mail  
 
 
PostPosted: 03 Feb 2011 
Хиппей (support team)
User avatar
Joined: 30 Jul 2007
Posts: 111861
Lоcаtion: Киев (Kyiv, UA)
Age: 45
Name: Andrey
Да, кста, запрос закрывать?

_________________


Top
 Profile E-mail  
 
 
PostPosted: 03 Feb 2011 
Power Metal Maniac
User avatar
Joined: 09 Aug 2008
Posts: 6676
Lоcаtion: Москва
Age: 41
Name: Егор
нет, первый альбом ищем

_________________
Long Live Metal!


Top
 Profile  
 
 
PostPosted: 03 Feb 2011 
Хиппей (support team)
User avatar
Joined: 30 Jul 2007
Posts: 111861
Lоcаtion: Киев (Kyiv, UA)
Age: 45
Name: Andrey
aviacademy wrote:
все альбомы Guttural также есть в доке HPML

EG Power wrote:
первый альбом ищем

У Игоря его так и не оказалось, или чего? :vic:

_________________


Top
 Profile E-mail  
 
 
PostPosted: 03 Feb 2011 
Хиппей (support team)
User avatar
Joined: 30 Jul 2007
Posts: 111861
Lоcаtion: Киев (Kyiv, UA)
Age: 45
Name: Andrey
Первый альбом. Ссылки категорически живы :dance:

http://hpml.moole.ru/19148-guttural-set ... -2003.html

_________________


Top
 Profile E-mail  
 
 
PostPosted: 03 Feb 2011 
Metal Collector
User avatar
Joined: 16 Nov 2008
Posts: 1238
Lоcаtion: Химки
Age: 36
Name: Андрей
Кстати, приятная группа. Мне ранний Excelsis напомнили, особенно вокалом.


Top
 Profile E-mail  
 
 
PostPosted: 08 May 2011 
Power Metal Maniac
User avatar
Joined: 09 Aug 2008
Posts: 6676
Lоcаtion: Москва
Age: 41
Name: Егор
church wrote:
Вот здесь Игорь выложил лося альбома 2004 года, говорим ему спасибо и качаем кому надо
Guttural - Cross Words With Us (2004) Lossless

а пасс никто не подскажет? :oops:

_________________
Long Live Metal!


Top
 Profile  
 
 
PostPosted: 08 May 2011 
Хиппей (support team)
User avatar
Joined: 30 Jul 2007
Posts: 111861
Lоcаtion: Киев (Kyiv, UA)
Age: 45
Name: Andrey
Quote:
Пароль: HMR

_________________


Top
 Profile E-mail  
 
 
PostPosted: 08 May 2011 
Хиппей (support team)
User avatar
Joined: 30 Jul 2007
Posts: 111861
Lоcаtion: Киев (Kyiv, UA)
Age: 45
Name: Andrey
Перезалью сюда оба альбома попозже... :oops:

_________________


Top
 Profile E-mail  
 
 
PostPosted: 09 May 2011 
Power Metal Maniac
User avatar
Joined: 09 Aug 2008
Posts: 6676
Lоcаtion: Москва
Age: 41
Name: Егор
:thanx:

_________________
Long Live Metal!


Top
 Profile  
 
 
PostPosted: 10 May 2011 
Хиппей (support team)
User avatar
Joined: 30 Jul 2007
Posts: 111861
Lоcаtion: Киев (Kyiv, UA)
Age: 45
Name: Andrey
Guttural - 2003 - Set Swords To Music [EAC-APE] (by olegslen1)

Attachment:
front.jpg
front.jpg [ 2.05 MiB | Viewed 172 times ]


Attachment:
back.jpg
back.jpg [ 2.02 MiB | Viewed 165 times ]


Genre: Power Metal
Location: France
Format: ape+cue+log+covers
Size: 504 Mb


1. Winged Messengers - 03:27
2. The Kingdom of God - 07:54
3. Minstrels of the Kingdom Part 1 "Festivity" - 04:26
4. Minstrels of the Kingdom Part 2 "Poetry" - 08:23
5. My Rash Ancestor - 10:57
6. Forgive You Again - 07:40
7. Best Answer - 06:28
8. House of Smile part 1 "Spiritual Discovery" - 04:22
9. House of Smile part 2 "Vertiginously Whirlwind" - 03:10
10. House of Smile part 3 "Omnipresence of the Cross" - 05:49
11. Celestial Scouts (outro) - 00:23

TPT: 01:02:59


MultiUp l Narod

Источник: http://hpml.moole.ru/19148-guttural-set ... -2003.html :thanx:

log
Exact Audio Copy V0.99 prebeta 4 from 23. January 2008

Отчёт EAC об извлечении, выполненном 6. февраля 2009, 13:05

Guttural / Set Swords To Music

Дисковод: XIRUX 5YNSPINO9U Adapter: 3 ID: 0

Режим чтения : Достоверность
Использование точного потока : Да
Отключение кэша аудио : Да
Использование указателей C2 : Нет

Комбинированное смещение чтения/записи : 0
Способность читать области Lead-in и Lead-out : Нет
Заполнение пропущенных сэмплов тишиной : Да
Удаление блоков с тишиной в начале и конце : Нет
При вычислениях CRC использовались нулевые сэмплы : Нет
Интерфейс : Установленный внешний ASPI-интерфейс
Обработка зазоров : Добавлено к предыдущему треку

Только тест извлечения


TOC извлечённого CD

Трек | Старт | Длительность | Начальный сектор | Конечный сектор
---------------------------------------------------------------------
1 | 0:00.00 | 3:27.52 | 0 | 15576
2 | 3:27.52 | 7:54.58 | 15577 | 51184
3 | 11:22.35 | 4:25.69 | 51185 | 71128
4 | 15:48.29 | 8:33.12 | 71129 | 109615
5 | 24:21.41 | 10:59.27 | 109616 | 159067
6 | 35:20.68 | 7:39.11 | 159068 | 193503
7 | 43:00.04 | 6:28.52 | 193504 | 222655
8 | 49:28.56 | 4:22.33 | 222656 | 242338
9 | 53:51.14 | 3:10.46 | 242339 | 256634
10 | 57:01.60 | 5:50.39 | 256635 | 282923
11 | 62:52.24 | 0:22.32 | 282924 | 284605


Трек 1

Имя файла Winged Messenger.wav

Длина предзазора 0:00:02.00

Пиковый уровень 97.7 %
Качество трека 100.0 %
CRC теста E7CCB258
Копирование... OK

Трек 2

Имя файла The Kingdom of God.wav

Пиковый уровень 97.7 %
Качество трека 100.0 %
CRC теста E970B4D5
Копирование... OK

Трек 3

Имя файла Minstrels of the Kingdom Part 1.wav

Пиковый уровень 97.7 %
Качество трека 100.0 %
CRC теста 39FDE4DA
Копирование... OK

Трек 4

Имя файла Minstrels of the Kingdom Part 2.wav

Пиковый уровень 97.7 %
Качество трека 100.0 %
CRC теста 5DA8CD74
Копирование... OK

Трек 5

Имя файла My Rash Ancestor.wav

Длина предзазора 0:00:00.08

Пиковый уровень 97.7 %
Качество трека 100.0 %
CRC теста 73FD5FBE
Копирование... OK

Трек 6

Имя файла Forgive You Again.wav

Длина предзазора 0:00:01.19

Пиковый уровень 97.7 %
Качество трека 100.0 %
CRC теста C6197356
Копирование... OK

Трек 7

Имя файла Best Answer.wav

Пиковый уровень 97.7 %
Качество трека 100.0 %
CRC теста 15A289F9
Копирование... OK

Трек 8

Имя файла House of Smile part 1 Spiritual Discovery.wav

Пиковый уровень 97.7 %
Качество трека 100.0 %
CRC теста D6A88BA3
Копирование... OK

Трек 9

Имя файла House of Smile part 2 Vertiginously Whirlwind.wav

Пиковый уровень 97.7 %
Качество трека 99.9 %
CRC теста 25E2A4A1
Копирование... OK

Трек 10

Имя файла House of Smile part 3 Omnipresence of the Cross.wav

Пиковый уровень 97.7 %
Качество трека 100.0 %
CRC теста 83CB69C2
Копирование... OK

Трек 11

Имя файла Celestial Scouts.wav

Длина предзазора 0:00:01.51

Пиковый уровень 97.7 %
Качество трека 100.0 %
CRC теста 702322BA
Копирование... OK

Ошибок не произошло

Конец отчёта

------------------------------------------------------------

Exact Audio Copy V0.99 prebeta 4 from 23. January 2008

Отчёт EAC об извлечении, выполненном 6. февраля 2009, 13:43

Guttural / Set Swords To Music

Дисковод: XIRUX 5YNSPINO9U Adapter: 3 ID: 0

Режим чтения : Достоверность
Использование точного потока : Да
Отключение кэша аудио : Да
Использование указателей C2 : Нет

Комбинированное смещение чтения/записи : 0
Способность читать области Lead-in и Lead-out : Нет
Заполнение пропущенных сэмплов тишиной : Да
Удаление блоков с тишиной в начале и конце : Нет
При вычислениях CRC использовались нулевые сэмплы : Нет
Интерфейс : Установленный внешний ASPI-интерфейс

Выходной формат : Внутренние WAV-операции
Формат сэмплов : 44.100 Гц; 16 бит; стерео


TOC извлечённого CD

Трек | Старт | Длительность | Начальный сектор | Конечный сектор
---------------------------------------------------------------------
1 | 0:00.00 | 3:27.52 | 0 | 15576
2 | 3:27.52 | 7:54.58 | 15577 | 51184
3 | 11:22.35 | 4:25.69 | 51185 | 71128
4 | 15:48.29 | 8:33.12 | 71129 | 109615
5 | 24:21.41 | 10:59.27 | 109616 | 159067
6 | 35:20.68 | 7:39.11 | 159068 | 193503
7 | 43:00.04 | 6:28.52 | 193504 | 222655
8 | 49:28.56 | 4:22.33 | 222656 | 242338
9 | 53:51.14 | 3:10.46 | 242339 | 256634
10 | 57:01.60 | 5:50.39 | 256635 | 282923
11 | 62:52.24 | 0:22.32 | 282924 | 284605


Характеристики диапазона извлечения и сообщения об ошибках

Выбранный диапазон

Имя файла E:\! Audio -\Guttural - Set Swords To Music.wav

Пиковый уровень 97.7 %
Качество диапазона 100.0 %
CRC теста EEB3BBC3
CRC копии EEB3BBC3
Копирование... OK

Ошибок не произошло

Конец отчёта


cue
REM GENRE Rock
REM DATE 2003
REM DISCID 910ED20B
REM COMMENT "ExactAudioCopy v0.99pb4"
PERFORMER "Guttural"
TITLE "Set Swords To Music"
FILE "Guttural - Set Swords To Music (2003).ape" WAVE
TRACK 01 AUDIO
TITLE "Winged Messenger"
PERFORMER "Guttural"
INDEX 01 00:00:00
TRACK 02 AUDIO
TITLE "The Kingdom of God"
PERFORMER "Guttural"
INDEX 01 03:27:52
TRACK 03 AUDIO
TITLE "Minstrels of the Kingdom Part 1"
PERFORMER "Guttural"
INDEX 01 11:22:35
TRACK 04 AUDIO
TITLE "Minstrels of the Kingdom Part 2"
PERFORMER "Guttural"
INDEX 01 15:48:29
TRACK 05 AUDIO
TITLE "My Rash Ancestor"
PERFORMER "Guttural"
INDEX 00 24:21:33
INDEX 01 24:21:41
TRACK 06 AUDIO
TITLE "Forgive You Again"
PERFORMER "Guttural"
INDEX 00 35:19:49
INDEX 01 35:20:68
TRACK 07 AUDIO
TITLE "Best Answer"
PERFORMER "Guttural"
INDEX 01 43:00:04
TRACK 08 AUDIO
TITLE "House of Smile part 1 Spiritual Discovery"
PERFORMER "Guttural"
INDEX 01 49:28:56
TRACK 09 AUDIO
TITLE "House of Smile part 2 Vertiginously Whirlwind"
PERFORMER "Guttural"
INDEX 01 53:51:14
TRACK 10 AUDIO
TITLE "House of Smile part 3 Omnipresence of the Cross"
PERFORMER "Guttural"
INDEX 01 57:01:60
TRACK 11 AUDIO
TITLE "Celestial Scouts"
PERFORMER "Guttural"
INDEX 00 62:50:48
INDEX 01 62:52:24




Лось перезалит без разрешения Администрации данного дока, посему он не может считаться лосем и приравнивается к оленю :esel: :cow:

_________________


Top
 Profile E-mail  
 
 
PostPosted: 11 May 2011 
Хиппей (support team)
User avatar
Joined: 30 Jul 2007
Posts: 111861
Lоcаtion: Киев (Kyiv, UA)
Age: 45
Name: Andrey
Guttural - 2004 - Cross Words With Us [wv]

Attachment:
booklet (side A).jpg
booklet (side A).jpg [ 1.95 MiB | Viewed 198 times ]


Attachment:
back.jpg
back.jpg [ 1.19 MiB | Viewed 174 times ]


Genre: Power Metal
Location: France
Format: wv+cue+log+covers
Size: 364 Mb


1. The Four Lowing - 16:44
2. Prologue - 01:14
3. A Star In A Rainbow - 05:50
4. The Forgotten Isle Castle - 06:42
5. Distant World - 04:54
6. Mr. Hypocrite and Mrs. Hatred - 06:29
7. Vikland - 08:21

TPT: 50:14

MultiUp l Narod

И этот лось так же спёрт с дока http://hpml.moole.ru , поэтому все жалобы и спасибки отправляем туды :dance:

А я шо, я мороженое ело, мене Правила дока за линзаме не видно было :pig:

log
Exact Audio Copy V0.99 prebeta 5 from 4. May 2009

Отчёт EAC об извлечении, выполненном 19. мая 2010, 20:38

Guttural / Cross Words With Us

Дисковод: HL-DT-STDVD-RAM GSA-H55L Adapter: 1 ID: 0

Режим чтения : Достоверность
Использование точного потока : Да
Отключение кэша аудио : Да
Использование указателей C2 : Нет

Коррекция смещения при чтении : 102
Способность читать области Lead-in и Lead-out : Нет
Заполнение пропущенных сэмплов тишиной : Да
Удаление блоков с тишиной в начале и конце : Нет
При вычислениях CRC использовались нулевые сэмплы : Да
Интерфейс : Установленный внешний ASPI-интерфейс

Выходной формат : Пользовательский кодировщик
Выбранный битрейт : 1024 kBit/s
Качество : Высокий
Добавление ID3-тэга : Да
Утилита сжатия : C:\Program Files\Exact Audio Copy\WavPack\wavpack.exe
Дополнительные параметры : -hhx6 %s %d


TOC извлечённого CD

Трек | Старт | Длительность | Начальный сектор | Конечный сектор
---------------------------------------------------------------------
1 | 0:00.00 | 16:43.30 | 0 | 75254
2 | 16:43.30 | 1:13.48 | 75255 | 80777
3 | 17:57.03 | 5:50.13 | 80778 | 107040
4 | 23:47.16 | 6:41.32 | 107041 | 137147
5 | 30:28.48 | 4:53.61 | 137148 | 159183
6 | 35:22.34 | 6:28.71 | 159184 | 188354
7 | 41:51.30 | 8:20.35 | 188355 | 225889


Характеристики диапазона извлечения и сообщения об ошибках

Выбранный диапазон

Имя файла H:\Guttural - Cross Words With Us [2004] [EAC-WV]\Guttural - Cross Words With Us.wav

Пиковый уровень 100.0 %
Качество диапазона 99.9 %
CRC копии 55C3182E
Копирование... OK

Ошибок не произошло

Конец отчёта


cue
REM GENRE "Power Metal"
REM DATE 2004
REM DISCID 490BC307
REM COMMENT "ExactAudioCopy v0.99pb5"
PERFORMER "Guttural"
TITLE "Cross Words With Us"
FILE "Guttural - Cross Words With Us.wv" WAVE
TRACK 01 AUDIO
TITLE "The Fourlowing"
PERFORMER "Guttural"
INDEX 01 00:00:00
TRACK 02 AUDIO
TITLE "Prologue (Dance Of The Franks)"
PERFORMER "Guttural"
INDEX 01 16:43:30
TRACK 03 AUDIO
TITLE "A Star In A Rainbow"
PERFORMER "Guttural"
INDEX 01 17:57:03
TRACK 04 AUDIO
TITLE "The Forgotten Isle Castle "
PERFORMER "Guttural"
INDEX 00 23:46:16
INDEX 01 23:47:16
TRACK 05 AUDIO
TITLE "Distant World"
PERFORMER "Guttural"
INDEX 00 30:26:48
INDEX 01 30:28:48
TRACK 06 AUDIO
TITLE "Mister Hypocrite & Miss Hatred"
PERFORMER "Guttural"
INDEX 00 35:20:34
INDEX 01 35:22:34
TRACK 07 AUDIO
TITLE "Vikand"
PERFORMER "Guttural"
INDEX 00 41:49:30
INDEX 01 41:51:30

_________________


Top
 Profile E-mail  
 
 
PostPosted: 14 May 2011 
Хиппей (support team)
User avatar
Joined: 30 Jul 2007
Posts: 111861
Lоcаtion: Киев (Kyiv, UA)
Age: 45
Name: Andrey
Кстати: http://rutracker.org/forum/viewtopic.php?t=3397679 :dance:

_________________


Top
 Profile E-mail  
 
 
PostPosted: 14 May 2011 
Доктор энтомологии
User avatar
Joined: 22 Jan 2009
Posts: 9694
Lоcаtion: Даугавпилс
Age: 44
Name: Алексей
Scatterbrain wrote:

мороженое ело


дай откусить :oops:


Top
 Profile  
 
 
PostPosted: 14 May 2011 
Хиппей (support team)
User avatar
Joined: 30 Jul 2007
Posts: 111861
Lоcаtion: Киев (Kyiv, UA)
Age: 45
Name: Andrey
Image
:no onan:

phpBB [youtube]

_________________


Top
 Profile E-mail  
 
Display posts from previous:  Sort by  
Post new topic Reply to topic  [ 19 posts ] 

All times are UTC + 3 hours


Who is online

Users browsing this forum: No registered users and 2 guests


You cannot post new topics in this forum
You cannot reply to topics in this forum
You cannot edit your posts in this forum
You cannot delete your posts in this forum
You cannot post attachments in this forum

Search for:
Яндекс.Метрика
cron
Powered by phpBB © 2000, 2002, 2005, 2007 phpBB Group