\m/ 80's metal \m/

Информационно-аналитический форум "80 см пыли" (In Search We Trust) "У нас никто никуда не спешит"
Me For You - http://me-4u.com
It is currently 16 Feb 2019

All times are UTC + 3 hours

Spoiler
Chat - temporary registration for foreign users (please leave your application here)







Post new topic Reply to topic  [ 21 posts ]  Go to page 1, 2  Next
Author Message
 
PostPosted: 04 Mar 2010 
адын фелософъ прокметолу
User avatar
Joined: 22 Oct 2009
Posts: 2732
Lоcаtion: Сочи
Age: 41
Name: Сергей
Ищу альбомы гр. Greyhaven

Greyhaven 2000

Image

1. Ride The Horizon 02:24
2. Setting Sun 05:46
3. Mirror My Eyes 09:04
4. Downfall 06:14
5. Approaching The Twilight 05:18
6. Shards Of Sky 11:09
7. Solitude Surrounding 09:01
8. Greyhaven 05:34
9. Cold Night By The Fortress 08:34

и

Greyhaven Demo 1998

Vessel has 4 parts:
I.Prologue
II.Moria Downs
III.Delimordor
IV.Solaris
1. Vessel 21:10
2. Downfall 06:12

Total playing time 27:22

изображения на демо запись нет
На метал ареа ссылки дохлые :yo: и залитые и перезалитые :аааа:
Так что если у кого сохранился альбом 2000-года пожалуйста залейте :pray: Юра, может быть он у тебя ещё есть?
Что касается демо то прийдётся наверное долго его искать :ryba:

_________________
Я ненавижу гранж и альтернативную музыку


Top
 Profile E-mail  
 
 
PostPosted: 04 Mar 2010 
Прокъмитолист
User avatar
Joined: 12 Aug 2007
Posts: 6527
Lоcаtion: Санктъ-Петербуркъ
Age: 51
Name: Олекъ
что касается демок вообще, то я не слишком гоняюсь за ними. ну, разве что их переиздадут на цд.

а альбом этот у меня на болваночке есть, могу сделать неправильного лосика :oops:

_________________
прокъметол - это музыко, от которово есть прок (ы)


Top
 Profile  
 
 
PostPosted: 04 Mar 2010 
А может смените мне статус?..
User avatar
Joined: 08 Jul 2009
Posts: 893
Lоcаtion: Харьков
Age: 45
Name: Юрий
По демкам полностью согласен с Олегом-вообще не беру в любом виде!
Полный альбом в мп3 залью через 10 минут!


Top
 Profile  
 
 
PostPosted: 04 Mar 2010 
Прокъмитолист
User avatar
Joined: 12 Aug 2007
Posts: 6527
Lоcаtion: Санктъ-Петербуркъ
Age: 51
Name: Олекъ
Юр, что у тебя с глазаме? :shok: :crazy:

_________________
прокъметол - это музыко, от которово есть прок (ы)


Top
 Profile  
 
 
PostPosted: 04 Mar 2010 
Хиппей (support team)
User avatar
Joined: 30 Jul 2007
Posts: 110281
Lоcаtion: Киев (Kyiv, UA)
Age: 45
Name: Andrey
Так это ж газ российский прёт из всех щелей :shok:

_________________


Top
 Profile E-mail  
 
 
PostPosted: 04 Mar 2010 
А может смените мне статус?..
User avatar
Joined: 08 Jul 2009
Posts: 893
Lоcаtion: Харьков
Age: 45
Name: Юрий
http://www.axifile.com?6078943

194kbs 88Mb


Top
 Profile  
 
 
PostPosted: 04 Mar 2010 
А может смените мне статус?..
User avatar
Joined: 08 Jul 2009
Posts: 893
Lоcаtion: Харьков
Age: 45
Name: Юрий
spiralarch wrote:
Юр, что у тебя с глазаме? :shok: :crazy:



....искры из глаз,по лбу дали.... :cry:


Top
 Profile  
 
 
PostPosted: 04 Mar 2010 
Power Metal Maniac
User avatar
Joined: 09 Aug 2008
Posts: 6590
Lоcаtion: Москва
Age: 41
Name: Егор
spiralarch
Олег, давай лося, пусть непарнокопытного, но все же лося)

_________________
Long Live Metal!


Top
 Profile  
 
 
PostPosted: 04 Mar 2010 
Хиппей (support team)
User avatar
Joined: 30 Jul 2007
Posts: 110281
Lоcаtion: Киев (Kyiv, UA)
Age: 45
Name: Andrey
Пора заводить раздел "Криволосье"... :scratch:

_________________


Top
 Profile E-mail  
 
 
PostPosted: 04 Mar 2010 
адын фелософъ прокметолу
User avatar
Joined: 22 Oct 2009
Posts: 2732
Lоcаtion: Сочи
Age: 41
Name: Сергей
versace wrote:
http://www.axifile.com?6078943194kbs 88Mb

Спасибо :true:
Мелодичная группа правда вокалиста еле слышно

_________________
Я ненавижу гранж и альтернативную музыку


Top
 Profile E-mail  
 
 
PostPosted: 31 Mar 2010 
Хиппей (support team)
User avatar
Joined: 30 Jul 2007
Posts: 110281
Lоcаtion: Киев (Kyiv, UA)
Age: 45
Name: Andrey
Вокалиста слышно нормально. Просто он не снял скафанедер :kaz:
А вот музыка мне показалась уж слишком космической, прямолинейной и... попсовой :pardon:

Спасибо за альбом :thanx:

_________________


Top
 Profile E-mail  
 
 
PostPosted: 09 Apr 2010 
Хиппей (support team)
User avatar
Joined: 30 Jul 2007
Posts: 110281
Lоcаtion: Киев (Kyiv, UA)
Age: 45
Name: Andrey
И еще раз прослушал альбом. Ну норм, уже лучше. Но всё равно слишком однотипно и меланхолично :bore:

_________________


Top
 Profile E-mail  
 
 
PostPosted: 16 Oct 2011 
спирт 100%
User avatar
Joined: 22 Sep 2008
Posts: 4364
Age: 47
Name: Саня
Greyhaven - Greyhaven - 2000, FLAC (image+.cue) lossless
http://rutracker.org/forum/viewtopic.php?t=3518521


Top
 Profile  
 
 
PostPosted: 16 Oct 2011 
Прокъмитолист
User avatar
Joined: 12 Aug 2007
Posts: 6527
Lоcаtion: Санктъ-Петербуркъ
Age: 51
Name: Олекъ
spryt777 wrote:
Greyhaven - Greyhaven - 2000, FLAC (image+.cue) lossless

этот же рип и у меня в подписи можно найти. Серега, если альбом еще нужен, а с ослом или торрентом проблемы - дай знать, залью ;)

_________________
прокъметол - это музыко, от которово есть прок (ы)


Top
 Profile  
 
 
PostPosted: 02 Nov 2011 
Хиппей (support team)
User avatar
Joined: 30 Jul 2007
Posts: 110281
Lоcаtion: Киев (Kyiv, UA)
Age: 45
Name: Andrey
Олегу спасибо! :thanx:

Greyhaven - 2000 - Greyhaven [flac]

Image
Image

Genre: Prog Metal
Location: USA
Format: flac+cue+log+scans
Size: 476 Mb


01. Ride The Horizon [0:02:24.64]
02. Setting Sun [0:05:46.20]
03. Mirror My Eyes [0:09:04.23]
04. Downfall [0:06:14.09]
05. Approaching The Twilight [0:05:18.41]
06. Shards Of Sky [0:11:09.72]
07. Solitude Surrounding [0:09:01.35]
08. Greyhaven [0:05:34.67]
09. Cold Night By The Fortress [0:08:25.00]

Total Time : [1:03:01.31]

MultiUp l Narod

Thanx to spiralarch from MMT :thanx:

log
Exact Audio Copy V1.0 beta 1 from 15. November 2010

EAC extraction logfile from 7. April 2011, 0:54

Greyhaven / Greyhaven

Used drive : Optiarc DVD RW AD-7240S Adapter: 2 ID: 0

Read mode : Secure
Utilize accurate stream : Yes
Defeat audio cache : Yes
Make use of C2 pointers : No

Read offset correction : 48
Overread into Lead-In and Lead-Out : No
Fill up missing offset samples with silence : Yes
Delete leading and trailing silent blocks : No
Null samples used in CRC calculations : Yes
Used interface : Native Win32 interface for Win NT & 2000

Used output format : Internal WAV Routines
Sample format : 44.100 Hz; 16 Bit; Stereo


TOC of the extracted CD

Track | Start | Length | Start sector | End sector
---------------------------------------------------------
1 | 0:00.00 | 2:24.64 | 0 | 10863
2 | 2:24.64 | 5:46.20 | 10864 | 36833
3 | 8:11.09 | 9:04.23 | 36834 | 77656
4 | 17:15.32 | 6:14.09 | 77657 | 105715
5 | 23:29.41 | 5:18.41 | 105716 | 129606
6 | 28:48.07 | 11:09.72 | 129607 | 179853
7 | 39:58.04 | 9:01.35 | 179854 | 220463
8 | 48:59.39 | 5:34.67 | 220464 | 245580
9 | 54:34.31 | 8:25.00 | 245581 | 283455


Range status and errors

Selected range

Filename D:\spiralarch\Greyhaven - Greyhaven.wav

Peak level 98.9 %
Extraction speed 0.5 X
Range quality 100.0 %
Copy CRC C17F6C59
Copy OK

No errors occurred


AccurateRip summary

Track 1 accurately ripped (confidence 8) [5B4CD2E3]
Track 2 accurately ripped (confidence 8) [2A908AB4]
Track 3 accurately ripped (confidence 8) [28F81DF7]
Track 4 accurately ripped (confidence 8) [1ADA8C4F]
Track 5 accurately ripped (confidence 8) [A92943A1]
Track 6 accurately ripped (confidence 8) [F7768B3E]
Track 7 accurately ripped (confidence 8) [D9ED9309]
Track 8 accurately ripped (confidence 8) [74285644]
Track 9 accurately ripped (confidence 8) [17FD833F]

All tracks accurately ripped

End of status report

==== Log checksum 2960DF97CCB87868481EA36E0E8BA7621F8FD97D3A33D10C5640C6980B51CD8A ====


cue
REM GENRE "Progressive Metal"
REM DATE 2000
REM DISCID 620EC309
REM COMMENT "ExactAudioCopy v1.0b1"
PERFORMER "Greyhaven"
TITLE "Greyhaven"
FILE "Greyhaven - Greyhaven.flac" WAVE
TRACK 01 AUDIO
TITLE "Ride The Horizon"
PERFORMER "Greyhaven"
INDEX 01 00:00:00
TRACK 02 AUDIO
TITLE "Setting Sun"
PERFORMER "Greyhaven"
INDEX 01 02:24:64
TRACK 03 AUDIO
TITLE "Mirror My Eyes"
PERFORMER "Greyhaven"
INDEX 01 08:11:09
TRACK 04 AUDIO
TITLE "Downfall"
PERFORMER "Greyhaven"
INDEX 01 17:15:32
TRACK 05 AUDIO
TITLE "Approaching The Twilight"
PERFORMER "Greyhaven"
INDEX 01 23:29:41
TRACK 06 AUDIO
TITLE "Shards Of Sky"
PERFORMER "Greyhaven"
INDEX 01 28:48:07
TRACK 07 AUDIO
TITLE "Solitude Surrounding"
PERFORMER "Greyhaven"
INDEX 01 39:58:04
TRACK 08 AUDIO
TITLE "Greyhaven"
PERFORMER "Greyhaven"
INDEX 01 48:59:39
TRACK 09 AUDIO
TITLE "Cold Night By The Fortress"
PERFORMER "Greyhaven"
INDEX 01 54:34:31

_________________


Top
 Profile E-mail  
 
 
PostPosted: 02 Nov 2011 
адын фелософъ прокметолу
User avatar
Joined: 22 Oct 2009
Posts: 2732
Lоcаtion: Сочи
Age: 41
Name: Сергей
Спасибо ребята за лося

_________________
Я ненавижу гранж и альтернативную музыку


Top
 Profile E-mail  
 
 
PostPosted: 02 Nov 2011 
адын фелософъ прокметолу
User avatar
Joined: 22 Oct 2009
Posts: 2732
Lоcаtion: Сочи
Age: 41
Name: Сергей
рекса можно снимать
У Эмиля на форуме оказалось демо
http://heavymetalrarities.com/forum/viewtopic.php?f=45&t=1387

_________________
Я ненавижу гранж и альтернативную музыку


Top
 Profile E-mail  
 
 
PostPosted: 02 Nov 2011 
Хиппей (support team)
User avatar
Joined: 30 Jul 2007
Posts: 110281
Lоcаtion: Киев (Kyiv, UA)
Age: 45
Name: Andrey
Урряяя :dance:

_________________


Top
 Profile E-mail  
 
 
PostPosted: 02 Nov 2011 
Хиппей (support team)
User avatar
Joined: 30 Jul 2007
Posts: 110281
Lоcаtion: Киев (Kyiv, UA)
Age: 45
Name: Andrey
Кста, а там не та демка, а два трэка от 97 и 00 годов :pardon:

F-Bit l Narod

1. Vessel - 20:55
2. Mirage - 09:22

_________________


Top
 Profile E-mail  
 
 
PostPosted: 03 Nov 2011 
адын фелософъ прокметолу
User avatar
Joined: 22 Oct 2009
Posts: 2732
Lоcаtion: Сочи
Age: 41
Name: Сергей
Не та самая.
Песня Vessel делится на 4 части
I.Prologue
II.Moria Downs
III.Delimordor
IV.Solaris
wizard12 wrote:
2. Downfall 06:12

эта песня вошла в полноформатный альбом
Scatterbrain wrote:
2. Mirage - 09:22

а вот этой песни вааще не было
так что мы имеем полное собрание сочинений Greyhaven

_________________
Я ненавижу гранж и альтернативную музыку


Top
 Profile E-mail  
 
Display posts from previous:  Sort by  
Post new topic Reply to topic  [ 21 posts ]  Go to page 1, 2  Next

All times are UTC + 3 hours


Who is online

Users browsing this forum: No registered users and 2 guests


You cannot post new topics in this forum
You cannot reply to topics in this forum
You cannot edit your posts in this forum
You cannot delete your posts in this forum
You cannot post attachments in this forum

Search for:
Яндекс.Метрика
Powered by phpBB © 2000, 2002, 2005, 2007 phpBB Group