\m/ 80's metal \m/

Информационно-аналитический форум "80 см пыли" (In Search We Trust) "У нас никто никуда не спешит"
Me For You - http://me-4u.com
It is currently 24 Apr 2019

All times are UTC + 3 hours

Spoiler
Chat - temporary registration for foreign users (please leave your application here)







Post new topic Reply to topic  [ 14 posts ] 
Author Message
 
PostPosted: 02 Jan 2010 
труъ антисионист
User avatar
Joined: 01 Aug 2007
Posts: 4541
Lоcаtion: Откуда и большинство из нас
Age: 38
Name: Дядя Вова
1977 Graham Bonnet
Image
Tracklist:
01. It's All Over Now Baby Blue (4:14)
02. Will You Still Love Me Tomorrow (3:53)
03. Tired Of Being Alone (3:59)
04. Wino Song (4:15)
05. Goodnight And Goodmorning (5:28)
06. Danny (3:15)
07. Sunday 16th (4:20)
08. Rock Island Line (2:01)
09. Soul Seeker (3:27)
10. Heroes On My Picture Wall (3:38)

Log
Exact Audio Copy V0.99 prebeta 4 from 23. January 2008

Отчёт EAC об извлечении, выполненном 8. ноября 2008, 21:50

Unknown Artist / Unknown Title

Дисковод: TSSTcorpCDW/DVD TS-H492A Adapter: 0 ID: 1

Режим чтения : Достоверность
Использование точного потока : Да
Отключение кэша аудио : Да
Использование указателей C2 : Нет

Коррекция смещения при чтении : 6
Способность читать области Lead-in и Lead-out : Нет
Заполнение пропущенных сэмплов тишиной : Да
Удаление блоков с тишиной в начале и конце : Нет
При вычислениях CRC использовались нулевые сэмплы : Нет
Интерфейс : Установленный внешний ASPI-интерфейс

Выходной формат : Внутренние WAV-операции
Формат сэмплов : 44.100 Гц; 16 бит; стерео


TOC извлечённого CD

Трек | Старт | Длительность | Начальный сектор | Конечный сектор
---------------------------------------------------------------------
1 | 0:00.00 | 4:14.04 | 0 | 19053
2 | 4:14.04 | 3:53.34 | 19054 | 36562
3 | 8:07.38 | 3:59.35 | 36563 | 54522
4 | 12:06.73 | 4:14.40 | 54523 | 73612
5 | 16:21.38 | 5:28.32 | 73613 | 98244
6 | 21:49.70 | 3:14.69 | 98245 | 112863
7 | 25:04.64 | 4:19.61 | 112864 | 132349
8 | 29:24.50 | 2:01.01 | 132350 | 141425
9 | 31:25.51 | 3:27.17 | 141426 | 156967
10 | 34:52.68 | 3:38.32 | 156968 | 173349


Характеристики диапазона извлечения и сообщения об ошибках

Выбранный диапазон

Имя файла \LossLess\Bonnet\Graham Bonnet.wav

Пиковый уровень 100.0 %
Качество диапазона 99.9 %
CRC копии 93ABABF4
Копирование... OK

Ошибок не произошло

Конец отчёта


Graham Bonnet 1977 Graham Bonnet.rar
http://www.megaupload.com/?d=8686EICJ

1978 No Bad Habit
Image
Tracklist:
01. Bad Days Are Gone (2:51)
02. Is There A Way To Sing The Blues (4:42)
03. Cold Lady (3:55)
04. Can't Complain (2:38)
05. Givin'up My Worryin' (4:25)
06. Stand Still Stella (2:46)
07. High School Angel (4:08)
08. Pyramid (4:14)
09. Only You Can Lift Me (4:54)
10. I'll Be Your Baby Tonight (3:15)
11. Won't You Join Me (3:49)
Log
EAC extraction logfile from 10. August 2008, 23:29 for CD
Graham Bonnet / No Bad Habits

Used drive : HL-DT-STDVD-ROM GDR8162B Adapter: 1 ID: 1
Read mode : Secure with NO C2, accurate stream, disable cache
Read offset correction : 0
Overread into Lead-In and Lead-Out : No

Used output format : Internal WAV Routines
44.100 Hz; 16 Bit; Stereo

Other options :
Fill up missing offset samples with silence : Yes
Delete leading and trailing silent blocks : No
Installed external ASPI interface


Range status and errors
Selected range
Filename E:\Music\Graham Bonnet - 1978(2003) No Bad Habits\grbo2\Graham Bonnet - 1978 - No Bad Habit\Graham Bonnet - No Bad Habits.wav

Peak level 99.5 %
Range quality 100.0 %
CRC 40ABAD4F
Copy OK

No errors occured

End of status report

Graham Bonnet 1978 No Bad Habit.rar
http://www.megaupload.com/?d=N1XR5QJH

1981 Line-Up
Image
Tracklist:
01. Night Games (4:39)
02. S.O.S. (3:13)
03. I'm A Lover (3:46)
04. Be My Baby (3:04)
05. That's The Way That It Is (3:18)
06. Liar (3:04)
07. Anthony Boy (3:28)
08. Dirty Hand (3:41)
09. Out On The Water (3:40)
10. Don't Stand In The Open (3:26)
11. Set Me Free (4:20)

Log
Exact Audio Copy V0.99 prebeta 3 from 28. July 2007

EAC extraction logfile from 24. September 2007, 14:28

Graham Bonnet / Line-Up

Used drive : PLEXTOR CD-R PX-W5224A Adapter: 1 ID: 1

Read mode : Secure
Utilize accurate stream : Yes
Defeat audio cache : Yes
Make use of C2 pointers : No

Read offset correction : 30
Overread into Lead-In and Lead-Out : Yes
Fill up missing offset samples with silence : Yes
Delete leading and trailing silent blocks : No
Null samples used in CRC calculations : Yes
Used interface : Installed external ASPI interface

Used output format : Internal WAV Routines
Sample format : 44.100 Hz; 16 Bit; Stereo


TOC of the extracted CD

Track | Start | Length | Start sector | End sector
---------------------------------------------------------
1 | 0:00.37 | 4:38.60 | 37 | 20946
2 | 4:39.22 | 3:12.58 | 20947 | 35404
3 | 7:52.05 | 3:46.10 | 35405 | 52364
4 | 11:38.15 | 3:03.57 | 52365 | 66146
5 | 14:41.72 | 3:18.10 | 66147 | 81006
6 | 18:00.07 | 3:04.15 | 81007 | 94821
7 | 21:04.22 | 3:28.33 | 94822 | 110454
8 | 24:32.55 | 3:40.47 | 110455 | 127001
9 | 28:13.27 | 3:40.20 | 127002 | 143521
10 | 31:53.47 | 3:25.40 | 143522 | 158936
11 | 35:19.12 | 4:19.70 | 158937 | 178431


Range status and errors

Selected range

Filename C:\DAE\Graham Bonnet - Line-Up\Line-Up.wav

Peak level 99.6 %
Range quality 100.0 %
Test CRC 2D248C4E
Copy CRC 2D248C4E
Copy OK

No errors occurred

End of status report


Graham Bonnet 1981 Line-Up.rar
http://www.megaupload.com/?d=VYGD6LX0

1991 Here Comes The Night

Image
Tracklist:
01. Something About You (3:13)
02. Here Comes The Night (4:18)
03. Long Time Gone (3:56)
04. Only One Woman (4:24)
05. Please Call Me (4:23)
06. A Change Is Gonna Come (4:23)
07. I'll Go Crazy (4:34)
08. I Go To Sleep (3:47)
09. Look Don't Touch (5:20)
10. Eyes Of A Child (3:16)
11. Don't (4:16)
12. What She Says, You Hear It Means (4:44)

Log
Отчёт EAC об извлечении, выполненном 27. октября 2008, 21:33 для диска:
Graham Bonnet / Here Comes The Night

Дисковод: TSSTcorpCDW/DVD TS-H492A Adapter: 0 ID: 1
Режим чтения: Достоверный (C2: нет, Точный поток: да, Отключение кэша: нет)
Комбинированное смещение чтения/записи: 0
Способность читать области Lead-in и Lead-out : Да

Выходной формат: Внутренние WAV-операции
44.100 Гц; 16 бит; стерео

Другие параметры:
Заполнение пропущенных сэмплов тишиной : Да
Удаление блоков с тишиной в начале и конце : Нет
Установленный внешний ASPI-интерфейс


Характеристики диапазона извлечения и сообщения об ошибках
Выбранный диапазон
Имя файла \Graham Bonnet - Here Comes The Night\Graham Bonnet - Here Comes The Night.wav

Пиковый уровень 98.0 %
Качество диапазона 100.0 %
CRC 1EAA551D
Копирование... OK

Ошибок не произошло

Конец отчёта


Graham Bonnet 1991 Here Comes The Night.rar
http://www.megaupload.com/?d=UXGYA42D

1997 Underground
Image
Tracklist:
01. Underground (4:14)
02. Whiplash (3:36)
03. Breakaway (3:32)
04. Movin' On (3:31)
05. The Strange (5:24)
06. Sail On (4:51)
07. The Wind Cries Mary (3:16)
08. Cajun Pink (4:24)
09. Winter Skin (4:18)
10. Lost In Hollywood (4:55)

Log
EAC extraction logfile from 3. October 2009, 12:04 for CD
Graham Bonnet / Underground

Used drive : HL-DT-STDVDRAM GSA-H12N Adapter: 1 ID: 0
Read mode : Secure with NO C2, accurate stream, disable cache
Read offset correction : 0
Overread into Lead-In and Lead-Out : No

Used output format : Internal WAV Routines
44.100 Hz; 16 Bit; Stereo

Other options :
Fill up missing offset samples with silence : Yes
Delete leading and trailing silent blocks : No
Native Win32 interface for Win NT & 2000

Range status and errors
Selected range
Filename D:\Graham Bonnet - Underground.wav

Timing problem 0:00:00

Peak level 100.0 %
CRC 2C6BFC17
Copy finished

No errors occured

End of status report

Graham Bonnet 1997 Underground.rar
http://www.megaupload.com/?d=DDT2LCEC

1999 The Day I Went Mad
Image
Tracklist:
01. The Day I Went Mad (4:32)
02. Don't Look Down (5:38)
03. Killer (4:35)
04. Oh! Darling (4:01)
05. Hey That's Me (4:32)
06. This Day (5:00)
07. Flying Not Falling (4:19)
08. Lolita Crush (4:53)
09. Model Inc. (4:47)
10. Spiked! (2:30)
11. Greenwich Meantime (4:56)
Log
Exact Audio Copy V0.99 prebeta 5 from 4. May 2009

Отчёт EAC об извлечении, выполненном 17. сентября 2009, 1:01

Graham Bonnet / The Day I Went Mad...

Дисковод: ASUS DRW-20B1LT Adapter: 5 ID: 0

Режим чтения : Достоверность
Использование точного потока : Да
Отключение кэша аудио : Да
Использование указателей C2 : Нет

Коррекция смещения при чтении : 6
Способность читать области Lead-in и Lead-out : Нет
Заполнение пропущенных сэмплов тишиной : Да
Удаление блоков с тишиной в начале и конце : Нет
При вычислениях CRC использовались нулевые сэмплы : Да
Интерфейс : Встроенный Win32-интерфейс для Win NT/2000

Выходной формат : Внутренние WAV-операции
Формат сэмплов : 44.100 Гц; 16 бит; стерео


TOC извлечённого CD

Трек | Старт | Длительность | Начальный сектор | Конечный сектор
---------------------------------------------------------------------
1 | 0:00.00 | 4:32.30 | 0 | 20429
2 | 4:32.30 | 5:38.05 | 20430 | 45784
3 | 10:10.35 | 4:34.62 | 45785 | 66396
4 | 14:45.22 | 4:00.50 | 66397 | 84446
5 | 18:45.72 | 4:32.08 | 84447 | 104854
6 | 23:18.05 | 5:00.07 | 104855 | 127361
7 | 28:18.12 | 4:19.23 | 127362 | 146809
8 | 32:37.35 | 4:53.05 | 146810 | 168789
9 | 37:30.40 | 4:46.60 | 168790 | 190299
10 | 42:17.25 | 2:30.12 | 190300 | 201561
11 | 44:47.37 | 4:55.60 | 201562 | 223746


Характеристики диапазона извлечения и сообщения об ошибках

Выбранный диапазон

Имя файла C:\Users\Мы\Documents\Graham Bonnet - The Day I Went Mad....wav

Пиковый уровень 97.9 %
Качество диапазона 99.9 %
CRC копии 19C18461
Копирование... OK

Ошибок не произошло

Конец отчёта

Graham Bonnet 1999 The Day I Went Mad.rar
http://www.megaupload.com/?d=I3UD2PRU

_________________
Image
Image


Top
 Profile  
 
 
PostPosted: 05 Jan 2010 
metallpaparazzy
User avatar
Joined: 20 Dec 2009
Posts: 674
Lоcаtion: Днепропетровск
Age: 44
Name: Геннадий
О, приходила и мне подобная мысль... только я хотел собрать ВСЕ его похождения, шоб были в одном месте. Вокалер мощный и все его работы достойны :true:
...ну, и попроще, в мр3... :oops:


Top
 Profile E-mail  
 
 
PostPosted: 05 Jan 2010 
труъ антисионист
User avatar
Joined: 01 Aug 2007
Posts: 4541
Lоcаtion: Откуда и большинство из нас
Age: 38
Name: Дядя Вова
В мп3 не ко мне, так как я всё уже снёс с винта. :crazy:

_________________
Image
Image


Top
 Profile  
 
 
PostPosted: 05 Jan 2010 
мiзантропъ
User avatar
Joined: 01 Aug 2007
Posts: 2248
Lоcаtion: UA
Age: 49
Name: Вася Пупкін
спасибо, качнём...

_________________
Image
Image
Too Little Much Too Late...


Top
 Profile  
 
 
PostPosted: 06 Jan 2010 
дядя Миша
User avatar
Joined: 17 Oct 2008
Posts: 3101
Lоcаtion: USSR
Age: 56
Name: Khy
А я его давно собираю. Считаю лучшим вокалистом.
Glot проверь 1977 Graham Bonnet ,пжста . чё tau покажет?


Top
 Profile  
 
 
PostPosted: 07 Jan 2010 
труъ антисионист
User avatar
Joined: 01 Aug 2007
Posts: 4541
Lоcаtion: Откуда и большинство из нас
Age: 38
Name: Дядя Вова
Незнаю, что покажет, я с винта всё снёс :crazy:

_________________
Image
Image


Top
 Profile  
 
 
PostPosted: 06 Feb 2010 
metallpaparazzy
User avatar
Joined: 20 Dec 2009
Posts: 674
Lоcаtion: Днепропетровск
Age: 44
Name: Геннадий
Собираюсь выложить BLACKTHORNE ''AFTERLIFE" есть на фирме... лить сюды, или отдельным топиком выложить? и вообше, надо ли? :oops:


Top
 Profile E-mail  
 
 
PostPosted: 09 Feb 2010 
Хиппей (support team)
User avatar
Joined: 30 Jul 2007
Posts: 111813
Lоcаtion: Киев (Kyiv, UA)
Age: 45
Name: Andrey
metallroll wrote:
отдельным топиком выложить?

Отдельным, плиз.

_________________


Top
 Profile E-mail  
 
 
PostPosted: 10 Feb 2010 
Drinker
User avatar
Joined: 12 Mar 2009
Posts: 568
Age: 47
Name: Распай Железных
metallroll wrote:
Собираюсь выложить BLACKTHORNE ''AFTERLIFE" есть на фирме... лить сюды, или отдельным топиком выложить? и вообше, надо ли? :oops:


Как нэ нада, дарагой! :razz: Объязатэлно нада!


Top
 Profile  
 
 
PostPosted: 13 Feb 2010 
metallpaparazzy
User avatar
Joined: 20 Dec 2009
Posts: 674
Lоcаtion: Днепропетровск
Age: 44
Name: Геннадий
Понал да, дарагой! Здэлаем! :razz:


Top
 Profile E-mail  
 
 
PostPosted: 13 Feb 2010 
Drinker
User avatar
Joined: 12 Mar 2009
Posts: 568
Age: 47
Name: Распай Железных
metallroll wrote:
Понал да, дарагой! Здэлаем! :razz:


Пасибо! ЖДУ!!!!


Top
 Profile  
 
 
PostPosted: 10 Sep 2010 
metallpaparazzy
User avatar
Joined: 20 Dec 2009
Posts: 674
Lоcаtion: Днепропетровск
Age: 44
Name: Геннадий
Glot
а коверочками (полными) укомплектованы Боннетовские лоси? :oops:
на всякий случай, полный комплект на 91 http://www.multiupload.com/KD006X3S6A


Top
 Profile E-mail  
 
 
PostPosted: 25 Sep 2010 
труъ антисионист
User avatar
Joined: 01 Aug 2007
Posts: 4541
Lоcаtion: Откуда и большинство из нас
Age: 38
Name: Дядя Вова
metallroll
А я уже и не помню, давно это было!

_________________
Image
Image


Top
 Profile  
 
 
PostPosted: 25 Sep 2010 
Хиппей (support team)
User avatar
Joined: 30 Jul 2007
Posts: 111813
Lоcаtion: Киев (Kyiv, UA)
Age: 45
Name: Andrey
Glot wrote:
А я уже и не помню

Ога, а можно ж было просто в посте указать :pardon:
Спешим куда-то, заливаем-качаем, эх...

_________________


Top
 Profile E-mail  
 
Display posts from previous:  Sort by  
Post new topic Reply to topic  [ 14 posts ] 

All times are UTC + 3 hours


Who is online

Users browsing this forum: No registered users and 1 guest


You cannot post new topics in this forum
You cannot reply to topics in this forum
You cannot edit your posts in this forum
You cannot delete your posts in this forum
You cannot post attachments in this forum

Search for:
Яндекс.Метрика
Powered by phpBB © 2000, 2002, 2005, 2007 phpBB Group