\m/ 80's metal \m/

Информационно-аналитический форум "80 см пыли" (In Search We Trust) "У нас никто никуда не спешит"
Me For You - http://me-4u.com
It is currently 17 Feb 2019

All times are UTC + 3 hours

Spoiler
Chat - temporary registration for foreign users (please leave your application here)







Post new topic Reply to topic  [ 10 posts ] 
Author Message
 
PostPosted: 12 Dec 2009 
труъ антисионист
User avatar
Joined: 01 Aug 2007
Posts: 4541
Lоcаtion: Откуда и большинство из нас
Age: 38
Name: Дядя Вова
Image

Группа: Gothic Slam
Альбом: Just a Face in the Crowd
Год: 1989
Лейбл: Roadracer Records
Стиль: Thrash Metal
Страна: USA
Формат: Flac / Log / Cue / Covers
Размер: 270 Mb


******************************************************************************

Line Up:

Daniel Gomez - vocals
Bill Genese - guitars
Klaude Ryker - guitars
J.T. - bass
Dave Chavarri - drums



Tracks:
01. Why not (1:33)
02. Who died and made you god (4:34)
03. Battered youth (5:02)
04. Thunder and lightning (4:08)
05. Feel the pain (3:13)
06. Cry freedom (5:50)
07. Violence imprisoned (4:36)
08. Keep the faith (2:45)
09. Demented obsession (3:54)
10. Contract killer (3:49)


log
EAC extraction logfile from 9. February 2008, 13:54 for CD
Gothic Slam / Just A Face In The Crowd

Used drive : PLEXTOR DVDR PX-800A Adapter: 1 ID: 0
Read mode : Secure with NO C2, accurate stream, disable cache
Read offset correction : 48
Overread into Lead-In and Lead-Out : No

Used output format : Internal WAV Routines
44.100 Hz; 16 Bit; Stereo

Other options :
Fill up missing offset samples with silence : Yes
Delete leading and trailing silent blocks : No
Installed external ASPI interface


Range status and errors
Selected range
Filename E:\Metalmadness ripped\PER ME\GOTHIC SLAM - Just a face in the crowd.wav

Peak level 100.0 %
Range quality 99.3 %
CRC 393A3432
Copy OK

No errors occured

End of status report


cue
REM GENRE "Thrash Metal"
REM DATE 1989
REM DISCID 82093B0A
REM COMMENT "ExactAudioCopy v0.95b4"
PERFORMER "Gothic Slam"
TITLE "Just A Face In The Crowd"
FILE "GOTHIC SLAM - Just a face in the crowd.flac" WAVE
TRACK 01 AUDIO
TITLE "Why not"
PERFORMER "Gothic Slam"
INDEX 00 00:00:00
INDEX 01 00:00:32
TRACK 02 AUDIO
TITLE "Who died and made you god"
PERFORMER "Gothic Slam"
INDEX 00 01:33:20
INDEX 01 01:33:22
TRACK 03 AUDIO
TITLE "Battered youth"
PERFORMER "Gothic Slam"
INDEX 00 06:07:46
INDEX 01 06:07:47
TRACK 04 AUDIO
TITLE "Thunder and lightning"
PERFORMER "Gothic Slam"
INDEX 00 11:09:11
INDEX 01 11:09:72
TRACK 05 AUDIO
TITLE "Feel the pain"
PERFORMER "Gothic Slam"
INDEX 00 15:16:36
INDEX 01 15:17:70
TRACK 06 AUDIO
TITLE "Cry freedom"
PERFORMER "Gothic Slam"
INDEX 00 18:28:74
INDEX 01 18:30:50
TRACK 07 AUDIO
TITLE "Violence imprisoned"
PERFORMER "Gothic Slam"
INDEX 01 24:20:42
TRACK 08 AUDIO
TITLE "Keep the faith"
PERFORMER "Gothic Slam"
INDEX 00 28:55:69
INDEX 01 28:56:27
TRACK 09 AUDIO
TITLE "Demented obsession"
PERFORMER "Gothic Slam"
INDEX 00 31:41:36
INDEX 01 31:41:37
TRACK 10 AUDIO
TITLE "Contract killer"
PERFORMER "Gothic Slam"
INDEX 00 35:33:46
INDEX 01 35:35:17



===================================DOWNLOAD========================================

Narod Gothic Slam - 1989 Just a face in the crowd.rar

Mega http://www.megaupload.com/?d=PD6KPI2O

_________________
Image
Image


Top
 Profile  
 
 
PostPosted: 12 Dec 2009 
Хиппей (support team)
User avatar
Joined: 30 Jul 2007
Posts: 110295
Lоcаtion: Киев (Kyiv, UA)
Age: 45
Name: Andrey
:thanx:

_________________


Top
 Profile E-mail  
 
 
PostPosted: 25 Jan 2010 
Хиппей (support team)
User avatar
Joined: 30 Jul 2007
Posts: 110295
Lоcаtion: Киев (Kyiv, UA)
Age: 45
Name: Andrey
Хороший альбом, очь хороший :true:
В меру мелодично, напористо и хитово. Трэшак в духе... Anthrax 1990-го, слегка с фанковыми заморочками :dance:

_________________


Top
 Profile E-mail  
 
 
PostPosted: 30 Jan 2010 
Пионэръ
User avatar
Joined: 01 Feb 2009
Posts: 44
Lоcаtion: UA
Age: 30
Name: .
Спасибо, хорош альбомчег :true:

_________________
We're pain, we're steel, a plot of knives, we're Transmaniacon MC.


Top
 Profile  
 
 
PostPosted: 30 Jan 2010 
Работнечег
User avatar
Joined: 28 Aug 2007
Posts: 5711
Lоcаtion: г. Москва
Age: 29
Name: Дима
Это с сиди рип или с винила? :oops:


Top
 Profile E-mail  
 
 
PostPosted: 30 Jan 2010 
Хиппей (support team)
User avatar
Joined: 30 Jul 2007
Posts: 110295
Lоcаtion: Киев (Kyiv, UA)
Age: 45
Name: Andrey
CD

_________________


Top
 Profile E-mail  
 
 
PostPosted: 30 Jan 2010 
Работнечег
User avatar
Joined: 28 Aug 2007
Posts: 5711
Lоcаtion: г. Москва
Age: 29
Name: Дима
Пасиб, тогда не буду пока качать :oops:


Top
 Profile E-mail  
 
 
PostPosted: 01 Feb 2010 
Хиппей (support team)
User avatar
Joined: 30 Jul 2007
Posts: 110295
Lоcаtion: Киев (Kyiv, UA)
Age: 45
Name: Andrey
Диск прикупил? :oops:

_________________


Top
 Profile E-mail  
 
 
PostPosted: 01 Feb 2010 
.
User avatar
Joined: 25 Aug 2007
Posts: 568
Lоcаtion: Москва
Age: 107
Name: Kostolom
Спасибо Володе за латинос-трэсх :thanx:


Top
 Profile  
 
 
PostPosted: 01 Feb 2010 
Работнечег
User avatar
Joined: 28 Aug 2007
Posts: 5711
Lоcаtion: г. Москва
Age: 29
Name: Дима
Scatterbrain wrote:
Диск прикупил? :oops:

нет ещё, но в конце месяца планирую.всё-таки 25 долларов для такого диска не такая уж высокая цена, да и группа мне нравится.


Top
 Profile E-mail  
 
Display posts from previous:  Sort by  
Post new topic Reply to topic  [ 10 posts ] 

All times are UTC + 3 hours


Who is online

Users browsing this forum: No registered users and 2 guests


You cannot post new topics in this forum
You cannot reply to topics in this forum
You cannot edit your posts in this forum
You cannot delete your posts in this forum
You cannot post attachments in this forum

Search for:
Яндекс.Метрика
Powered by phpBB © 2000, 2002, 2005, 2007 phpBB Group