\m/ 80's metal \m/

Информационно-аналитический форум "80 см пыли" (In Search We Trust) "У нас никто никуда не спешит"
Me For You - http://me-4u.com
It is currently 21 Jul 2019

All times are UTC + 3 hours

Spoiler
Chat - temporary registration for foreign users (please leave your application here)







Post new topic Reply to topic  [ 2 posts ] 
Author Message
 
PostPosted: 12 Sep 2009 
Хиппей (support team)
User avatar
Joined: 30 Jul 2007
Posts: 113573
Lоcаtion: Киев (Kyiv, UA)
Age: 46
Name: Andrey
Glenmore - 1993 - Materialized

    Image

Genre: Melodic Metal
Location: Germany
Format: flac+cue+log+covers
Size: 351 Mb


Line-up:
Jürgen Volk - vocals
Wolfgang Helichert - guitars
Olaf Adami - guitars
Markus Racheiser - bass
Dietrich Voge - drums

    1. Hungry - 05:22
    2. Speak to We - 03:06
    3. Riding the Winds of Change - 05:02
    4. The Voice - 04:10
    5. Take on a Shining Star - 04:32
    6. I Feel The Fire - 04:22
    7. Tell Me - 04:01
    8. Miracles - 06:00
    9. Don't Live The Life of a Stranger - 04:32
    10. The End of The Line - 04:53

    TPT: 46:08

Mega
Narod

Прекрасный альбом с элементами прогрессива и ненавязчивого пауэра :true:

Released by spiralarch from MMT

Все благодарности за лосика Олегу :thanx:

log
EAC extraction logfile from 21. May 2009, 17:22 for CD
Glenmore / Materialized

Used drive : _NEC DVD_RW ND-3500AG Adapter: 0 ID: 2
Read mode : Secure with NO C2, accurate stream, disable cache
Read offset correction : 48
Overread into Lead-In and Lead-Out : No

Used output format : Internal WAV Routines
44.100 Hz; 16 Bit; Stereo

Other options :
Fill up missing offset samples with silence : Yes
Delete leading and trailing silent blocks : No
Installed external ASPI interface


Range status and errors
Selected range
Filename E:\spiralarch\Glenmore - Materialized.wav

Peak level 96.6 %
Range quality 99.9 %
CRC CA865890
Copy OK

No errors occured

End of status report


cue
REM GENRE Metal
REM DATE 1993
REM DISCID 670ACE0A
REM COMMENT "ExactAudioCopy v0.95b4"
PERFORMER "Glenmore"
TITLE "Materialized"
FILE "Glenmore - Materialized.wav" WAVE
TRACK 01 AUDIO
TITLE "Hungry"
PERFORMER "Glenmore"
INDEX 00 00:00:00
INDEX 01 00:00:33
TRACK 02 AUDIO
TITLE "Speak To Me"
PERFORMER "Glenmore"
INDEX 01 05:23:30
TRACK 03 AUDIO
TITLE "Riding On The Winds Of Change"
PERFORMER "Glenmore"
INDEX 01 08:29:40
TRACK 04 AUDIO
TITLE "The Voice"
PERFORMER "Glenmore"
INDEX 01 13:32:18
TRACK 05 AUDIO
TITLE "Take On A Shining Star"
PERFORMER "Glenmore"
INDEX 01 17:42:33
TRACK 06 AUDIO
TITLE "I Feel The Fire"
PERFORMER "Glenmore"
INDEX 01 22:15:03
TRACK 07 AUDIO
TITLE "Tell Me"
PERFORMER "Glenmore"
INDEX 00 26:37:30
INDEX 01 26:38:35
TRACK 08 AUDIO
TITLE "Miracles"
PERFORMER "Glenmore"
INDEX 01 30:40:15
TRACK 09 AUDIO
TITLE "Don't Live The Life Of A Stranger"
PERFORMER "Glenmore"
INDEX 01 36:40:43
TRACK 10 AUDIO
TITLE "The End Of The Line"
PERFORMER "Glenmore"
INDEX 01 41:13:08

_________________


Top
 Profile E-mail  
 
 
PostPosted: 12 Sep 2009 
Old Time Rock`n`Roll
User avatar
Joined: 23 Jun 2008
Posts: 3461
Lоcаtion: г.Ульяновск
Age: 40
Name: Константин
Cпасибо, симпатичный альбом :dance:
Напоминает немного Queensryche конца 80-х, когда они были молодыми и красивыми


Top
 Profile  
 
Display posts from previous:  Sort by  
Post new topic Reply to topic  [ 2 posts ] 

All times are UTC + 3 hours


Who is online

Users browsing this forum: No registered users and 3 guests


You cannot post new topics in this forum
You cannot reply to topics in this forum
You cannot edit your posts in this forum
You cannot delete your posts in this forum
You cannot post attachments in this forum

Search for:
Яндекс.Метрика
Powered by phpBB © 2000, 2002, 2005, 2007 phpBB Group