\m/ 80's metal \m/

Информационно-аналитический форум "80 см пыли" (In Search We Trust) "У нас никто никуда не спешит"
Me For You - http://me-4u.com
It is currently 24 Apr 2019

All times are UTC + 3 hours

Spoiler
Chat - temporary registration for foreign users (please leave your application here)







Post new topic Reply to topic  [ 10 posts ] 
Author Message
 
PostPosted: 16 Jan 2015 
5-speed satisfactor
User avatar
Joined: 16 Feb 2009
Posts: 3723
Lоcаtion: New York, USA
Age: 41
Name: Leonid
Времени нет на оформление.

http://www.discogs.com/Grim-Reaper-Fear ... se/2904957

У вас 2 недели:

http://we.tl/w2aNXaSIaK

_________________
Death rules! Metal to all who oppose!


Top
 Profile  
 
 
PostPosted: 16 Jan 2015 
Partisanen - nicht kapitulieren!!
User avatar
Joined: 25 Dec 2011
Posts: 6941
Lоcаtion: партизанские леса
Age: 46
Name: Владимир
:thanx:

_________________
One more beer and Heavy Metal and I'm just fine!
старовер, куле... слово "блин" - до сих пор через Ъ говорю


Top
 Profile E-mail  
 
 
PostPosted: 16 Jan 2015 
\m/ 80 см сала \m/
User avatar
Joined: 12 Mar 2012
Posts: 2590
Age: 26
Name: Nick
:thanx:

_________________
1990 AUROPHON BRAINSTORM (Germany) - lossless
1994 MAUSOLEUM CLASSIX (Belgium-Germany) - lossless
1998 VA - GRIM HARVEST - Complete Metal Massacre Volumes I-XII


Top
 Profile  
 
 
PostPosted: 16 Jan 2015 
Хиппей (support team)
User avatar
Joined: 30 Jul 2007
Posts: 111813
Lоcаtion: Киев (Kyiv, UA)
Age: 45
Name: Andrey
:thanx:

mirror: Narod l M-Cloud

log
Exact Audio Copy V0.99 prebeta 5 from 4. May 2009

EAC extraction logfile from 13. January 2015, 20:57

Grim Reaper / Fear No Evil

Used drive : PLEXTOR DVDR PX-760A Adapter: 1 ID: 0

Read mode : Secure
Utilize accurate stream : Yes
Defeat audio cache : Yes
Make use of C2 pointers : No

Read offset correction : 30
Overread into Lead-In and Lead-Out : Yes
Fill up missing offset samples with silence : Yes
Delete leading and trailing silent blocks : No
Null samples used in CRC calculations : Yes
Used interface : Installed external ASPI interface

Used output format : Internal WAV Routines
Sample format : 44.100 Hz; 16 Bit; Stereo


TOC of the extracted CD

Track | Start | Length | Start sector | End sector
---------------------------------------------------------
1 | 0:00.00 | 3:59.12 | 0 | 17936
2 | 3:59.12 | 3:32.68 | 17937 | 33904
3 | 7:32.05 | 2:59.12 | 33905 | 47341
4 | 10:31.17 | 4:16.65 | 47342 | 66606
5 | 14:48.07 | 3:56.13 | 66607 | 84319
6 | 18:44.20 | 4:05.72 | 84320 | 102766
7 | 22:50.17 | 4:08.63 | 102767 | 121429
8 | 26:59.05 | 2:59.35 | 121430 | 134889
9 | 29:58.40 | 5:21.20 | 134890 | 158984


Range status and errors

Selected range

Filename P:\FLAC\rutracker\Grim Reaper - Fear No Evil.wav

Peak level 100.0 %
Range quality 100.0 %
Copy CRC 3D8963C3
Copy OK

No errors occurred

End of status report

cue
REM GENRE "Heavy Metal"
REM DATE 1985
REM DISCID 5D084709
REM COMMENT "ExactAudioCopy v0.99pb5"
PERFORMER "Grim Reaper"
TITLE "Fear No Evil"
FILE "Grim Reaper - Fear No Evil.wav" WAVE
TRACK 01 AUDIO
TITLE "Fear No Evil"
PERFORMER "Grim Reaper"
INDEX 01 00:00:00
TRACK 02 AUDIO
TITLE "Never Coming Back"
PERFORMER "Grim Reaper"
INDEX 01 03:59:12
TRACK 03 AUDIO
TITLE "Lord Of Darkness (Your Living Hell)"
PERFORMER "Grim Reaper"
INDEX 01 07:32:05
TRACK 04 AUDIO
TITLE "Matter Of Time"
PERFORMER "Grim Reaper"
INDEX 01 10:31:17
TRACK 05 AUDIO
TITLE "Rock And Roll Tonight"
PERFORMER "Grim Reaper"
INDEX 01 14:48:07
TRACK 06 AUDIO
TITLE "Let The Thunder Roar"
PERFORMER "Grim Reaper"
INDEX 01 18:44:20
TRACK 07 AUDIO
TITLE "Lay It On The Line"
PERFORMER "Grim Reaper"
INDEX 01 22:50:17
TRACK 08 AUDIO
TITLE "Fight To The Last"
PERFORMER "Grim Reaper"
INDEX 01 26:59:05
TRACK 09 AUDIO
TITLE "Final Scream"
PERFORMER "Grim Reaper"
INDEX 01 29:58:40

scans
Image

Image

Image

Image

Image

Image

Image

Image

_________________


Top
 Profile E-mail  
 
 
PostPosted: 16 Jan 2015 
Partisanen - nicht kapitulieren!!
User avatar
Joined: 25 Dec 2011
Posts: 6941
Lоcаtion: партизанские леса
Age: 46
Name: Владимир
Image

_________________
One more beer and Heavy Metal and I'm just fine!
старовер, куле... слово "блин" - до сих пор через Ъ говорю


Top
 Profile E-mail  
 
 
PostPosted: 17 Jan 2015 
Alive Again
User avatar
Joined: 17 Dec 2008
Posts: 4747
Lоcаtion: Курск Воронеж Оскол
Age: 44
Name: Дмитрий
:thanx: yandex


Top
 Profile E-mail  
 
 
PostPosted: 17 Jan 2015 
Хиппей (support team)
User avatar
Joined: 30 Jul 2007
Posts: 111813
Lоcаtion: Киев (Kyiv, UA)
Age: 45
Name: Andrey
metaleonid wrote:
У вас 2 недели:

:lloo: А у них? :cry:

:arrow: http://rutracker.org/forum/viewtopic.php?t=4916628 :dance:

_________________


Top
 Profile E-mail  
 
 
PostPosted: 18 Jan 2015 
5-speed satisfactor
User avatar
Joined: 16 Feb 2009
Posts: 3723
Lоcаtion: New York, USA
Age: 41
Name: Leonid
А он уже скачал и раздает. :crazy:

_________________
Death rules! Metal to all who oppose!


Top
 Profile  
 
 
PostPosted: 04 Feb 2015 
Персональный статус
User avatar
Joined: 11 May 2011
Posts: 418
Lоcаtion: Omsk
Age: 29
Name: Alexander
:thanx:

_________________
Enigma, unholy, ungodly, commander of the regeneration
Insidious and caught, implored by disgrace
Inhumation... The burial of man
Confession... Unify all evil


Top
 Profile E-mail  
 
 
PostPosted: 05 Feb 2015 
5-speed satisfactor
User avatar
Joined: 16 Feb 2009
Posts: 3723
Lоcаtion: New York, USA
Age: 41
Name: Leonid
А звук на япошке полное г. У меня винил почти есть. Но теперь только Виталию доверяю, но тот больше не цифрует.

_________________
Death rules! Metal to all who oppose!


Top
 Profile  
 
Display posts from previous:  Sort by  
Post new topic Reply to topic  [ 10 posts ] 

All times are UTC + 3 hours


Who is online

Users browsing this forum: No registered users and 1 guest


You cannot post new topics in this forum
You cannot reply to topics in this forum
You cannot edit your posts in this forum
You cannot delete your posts in this forum
You cannot post attachments in this forum

Search for:
Яндекс.Метрика
cron
Powered by phpBB © 2000, 2002, 2005, 2007 phpBB Group