\m/ 80's metal \m/

Информационно-аналитический форум "80 см пыли" (In Search We Trust) "У нас никто никуда не спешит"
Me For You - http://me-4u.com
It is currently 21 Jul 2019

All times are UTC + 3 hours

Spoiler
Chat - temporary registration for foreign users (please leave your application here)







Post new topic Reply to topic  [ 4 posts ] 
Author Message
 
PostPosted: 06 Jan 2014 
А может смените мне статус?..
User avatar
Joined: 22 Nov 2008
Posts: 971
Lоcаtion: Schelcovo,Russia
Age: 47
Name: Сергей
Image

Gypsy Pistoleros - Para Siempre (2007)

Bad Reputation BAD080101

1. Shotgun Kiss Is Ay Que Dolor
2. Un Hombre Sin Rostro, Pistolero
3. Forever Is Para Siempre
4. Senor Mangi Acqui
5. What's It Like to Be a Girl in The House of 1000 Dolls?
6. Jet, Jet, Jet Boyz
7. Una Para Todo Es Bandido!
8. Livin' la Vida Loca
9. Chicas Peligrosa
10. Moonchild
11. The Crazy Loco Loquito
12. Switchblade Kiss Comes Close
13. 1-2-3-4 Kiss Me Then I'm Damned for Sure

Lee J. Pistolero Lead Vocals
Iggie Pistolero Guitars
Angel Pistolero Bass
Leeroy Pistolero Drums

Produced by Joe Gibb.

Cue
REM GENRE Sleaze
REM DATE 2007
REM DISCID AB0BAE0D
REM COMMENT "ExactAudioCopy v0.95b4"
PERFORMER "Gypsy Pistoleros"
TITLE "Para Siempre"
FILE "Gypsy Pistoleros - Para Siempre (2007).wav" WAVE
TRACK 01 AUDIO
TITLE "Shotgun Kiss Is Ay Que Dolor"
PERFORMER "Gypsy Pistoleros"
INDEX 01 00:00:00
TRACK 02 AUDIO
TITLE "Un Hombre Sin Rostro, Pistolero"
PERFORMER "Gypsy Pistoleros"
INDEX 00 03:21:44
INDEX 01 03:21:51
TRACK 03 AUDIO
TITLE "Forever Is Para Siempre"
PERFORMER "Gypsy Pistoleros"
INDEX 01 07:36:27
TRACK 04 AUDIO
TITLE "Senor Mangi Acqui"
PERFORMER "Gypsy Pistoleros"
INDEX 00 09:37:13
INDEX 01 11:29:73
TRACK 05 AUDIO
TITLE "What's It Like to Be a Girl in The House of 1000 Dolls?"
PERFORMER "Gypsy Pistoleros"
INDEX 01 15:48:63
TRACK 06 AUDIO
TITLE "Jet, Jet, Jet Boyz"
PERFORMER "Gypsy Pistoleros"
INDEX 00 19:24:71
INDEX 01 19:25:52
TRACK 07 AUDIO
TITLE "Una Para Todo Es Bandido!"
PERFORMER "Gypsy Pistoleros"
INDEX 00 22:45:26
INDEX 01 22:46:24
TRACK 08 AUDIO
TITLE "Livin' la Vida Loca"
PERFORMER "Gypsy Pistoleros"
INDEX 00 27:04:16
INDEX 01 27:04:29
TRACK 09 AUDIO
TITLE "Chicas Peligrosa"
PERFORMER "Gypsy Pistoleros"
INDEX 00 30:43:46
INDEX 01 30:44:01
TRACK 10 AUDIO
TITLE "Moonchild"
PERFORMER "Gypsy Pistoleros"
INDEX 00 34:10:52
INDEX 01 34:13:74
TRACK 11 AUDIO
TITLE "The Crazy Loco Loquito"
PERFORMER "Gypsy Pistoleros"
INDEX 00 38:28:68
INDEX 01 38:30:46
TRACK 12 AUDIO
TITLE "Switchblade Kiss Comes Close"
PERFORMER "Gypsy Pistoleros"
INDEX 00 41:35:37
INDEX 01 41:43:64
TRACK 13 AUDIO
TITLE "1-2-3-4 Kiss Me Then I'm Damned for Sure"
PERFORMER "Gypsy Pistoleros"
INDEX 00 46:00:38
INDEX 01 46:01:20


Log
Отчёт EAC об извлечении, выполненном 5. января 2014, 10:57 для диска:
Gypsy Pistoleros / Para Siempre

Дисковод: HL-DT-STDVDRAM GT32N Adapter: 0 ID: 1
Режим чтения: Достоверный (C2: нет, Точный поток: да, Отключение кэша: да)
Коррекция смещения при чтении: 0
Способность читать области Lead-in и Lead-out : Нет

Выходной формат: Внутренние WAV-операции
44.100 Гц; 16 бит; стерео

Другие параметры:
Заполнение пропущенных сэмплов тишиной : Да
Удаление блоков с тишиной в начале и конце : Нет
Установленный внешний ASPI-интерфейс


Характеристики диапазона извлечения и сообщения об ошибках
Выбранный диапазон
Имя файла C:\Users\Сергей\Music\Gypsy Pistoleros - Para Siempre (2007).wav

Пиковый уровень 98.8 %
Качество диапазона 100.0 %
CRC B07AC310
Копирование... OK

Ошибок не произошло

Конец отчёта


Великолепная смесь глэма,слиза и фламенко.Плюс всякие испаноязычные словечки.
Редкая команда в наших краях.
"Livin' la Vida Loca" звучит так,как и должен звучать хит Десмонда Чайлда.

:losik:

:esel:

phpBB [youtube]


Top
 Profile  
 
 
PostPosted: 06 Jan 2014 
Я набрал 1000 сообщений!
Joined: 24 Oct 2009
Posts: 2233
Lоcаtion: Оренбург
Age: 55
Name: Юра
Спасибо! :thanx:

_________________
:dash: I am happy!


Top
 Profile E-mail  
 
 
PostPosted: 06 Jan 2014 
Дежурный по КУПу
User avatar
Joined: 17 Aug 2007
Posts: 5871
Age: 51
Name: Ге
:thanx:

_________________
http://jp-mania.ru/
http://jp-tourdates.ucoz.ru/


Top
 Profile  
 
 
PostPosted: 06 Jan 2014 
Хиппей (support team)
User avatar
Joined: 30 Jul 2007
Posts: 113573
Lоcаtion: Киев (Kyiv, UA)
Age: 46
Name: Andrey
:thanx:

mirror: Narod l M-Cloud

_________________


Top
 Profile E-mail  
 
Display posts from previous:  Sort by  
Post new topic Reply to topic  [ 4 posts ] 

All times are UTC + 3 hours


Who is online

Users browsing this forum: No registered users and 2 guests


You cannot post new topics in this forum
You cannot reply to topics in this forum
You cannot edit your posts in this forum
You cannot delete your posts in this forum
You cannot post attachments in this forum

Search for:
Яндекс.Метрика
Powered by phpBB © 2000, 2002, 2005, 2007 phpBB Group