\m/ 80's metal \m/

Информационно-аналитический форум "80 см пыли" (In Search We Trust) "У нас никто никуда не спешит"
Me For You - http://me-4u.com
It is currently 21 Jul 2019

All times are UTC + 3 hours

Spoiler
Chat - temporary registration for foreign users (please leave your application here)







Post new topic Reply to topic  [ 5 posts ] 
Author Message
 
PostPosted: 05 Jan 2014 
А может смените мне статус?..
User avatar
Joined: 22 Nov 2008
Posts: 971
Lоcаtion: Schelcovo,Russia
Age: 47
Name: Сергей
Image

Gypsy Pistoleros - Duende - Last Of The Pistoleros (2011)

Jamsync Music JSM051711
Released May 3, 2011

Produced, engineered and mixed by Mark Westwood

1.Welcome To the Hotel De La Muertos
2.They Call Me De Django
3.Rubi's Got a Gun
4.Jezebel
5.Sangra De Las Rosas
6.Stand & Deliver
7.Los Suenos Del Los Muertos
8.Johnny Peligroso
9.Woman
10.Livin' Down With the Gypsies

Jeff Williams Drums
Lee Pistolero Vocals, Guitar
Mark Westwood Electric & Acoustic Guitars, Bass

Cue
REM GENRE Sleaze
REM DATE 2011
REM DISCID 8D0A320A
REM COMMENT "ExactAudioCopy v0.95b4"
PERFORMER "Gypsy Pistoleros"
TITLE "Duende - Last Of The Pistoleros"
FILE "Gypsy Pistoleros - Duende - Last Of The Pistoleros (2011).wav" WAVE
TRACK 01 AUDIO
TITLE "Welcome To the Hotel De La Muertos "
PERFORMER "Gypsy Pistoleros"
INDEX 01 00:00:00
TRACK 02 AUDIO
TITLE "They Call Me De Django "
PERFORMER "Gypsy Pistoleros"
INDEX 00 04:21:59
INDEX 01 04:23:60
TRACK 03 AUDIO
TITLE "Rubi's Got a Gun "
PERFORMER "Gypsy Pistoleros"
INDEX 00 09:01:03
INDEX 01 09:03:08
TRACK 04 AUDIO
TITLE "Jezebel "
PERFORMER "Gypsy Pistoleros"
INDEX 00 11:52:00
INDEX 01 12:44:41
TRACK 05 AUDIO
TITLE "Sangra De Las Rosas "
PERFORMER "Gypsy Pistoleros"
INDEX 00 15:46:63
INDEX 01 15:48:64
TRACK 06 AUDIO
TITLE "Stand & Deliver "
PERFORMER "Gypsy Pistoleros"
INDEX 00 24:09:15
INDEX 01 24:11:18
TRACK 07 AUDIO
TITLE "Los Suenos Del Los Muertos "
PERFORMER "Gypsy Pistoleros"
INDEX 00 27:35:24
INDEX 01 27:37:24
TRACK 08 AUDIO
TITLE "Johnny Peligroso "
PERFORMER "Gypsy Pistoleros"
INDEX 00 31:53:38
INDEX 01 31:55:38
TRACK 09 AUDIO
TITLE "Woman "
PERFORMER "Gypsy Pistoleros"
INDEX 00 34:46:56
INDEX 01 35:07:39
TRACK 10 AUDIO
TITLE "Livin' Down With the Gypsies"
PERFORMER "Gypsy Pistoleros"
INDEX 00 38:44:24
INDEX 01 38:46:24


Log
Отчёт EAC об извлечении, выполненном 5. января 2014, 11:30 для диска:
Gypsy Pistoleros / Duende - Last Of The Pistoleros

Дисковод: HL-DT-STDVDRAM GT32N Adapter: 0 ID: 1
Режим чтения: Достоверный (C2: нет, Точный поток: да, Отключение кэша: да)
Коррекция смещения при чтении: 0
Способность читать области Lead-in и Lead-out : Нет

Выходной формат: Внутренние WAV-операции
44.100 Гц; 16 бит; стерео

Другие параметры:
Заполнение пропущенных сэмплов тишиной : Да
Удаление блоков с тишиной в начале и конце : Нет
Установленный внешний ASPI-интерфейс


Характеристики диапазона извлечения и сообщения об ошибках
Выбранный диапазон
Имя файла C:\Users\Сергей\Music\Gypsy Pistoleros - Duende - Last Of The Pistoleros (2011).wav

Пиковый уровень 100.0 %
Качество диапазона 100.0 %
CRC DB406BF6
Копирование... OK

Ошибок не произошло

Конец отчёта


Великолепная смесь глэма,слиза и фламенко.Плюс всякие испаноязычные словечки.
Редкая команда в наших краях.
"Sangra De Las Rosas" - настоящая жемчужина,среди медляков.

:losik:

:esel:

phpBB [youtube]


Top
 Profile  
 
 
PostPosted: 05 Jan 2014 
Дежурный по КУПу
User avatar
Joined: 17 Aug 2007
Posts: 5871
Age: 51
Name: Ге
:thanx:

_________________
http://jp-mania.ru/
http://jp-tourdates.ucoz.ru/


Top
 Profile  
 
 
PostPosted: 05 Jan 2014 
Хиппей (support team)
User avatar
Joined: 30 Jul 2007
Posts: 113573
Lоcаtion: Киев (Kyiv, UA)
Age: 46
Name: Andrey
:thanx:

mirror: Narod l M-Cloud

_________________


Top
 Profile E-mail  
 
 
PostPosted: 06 Jan 2014 
Я набрал 1000 сообщений!
Joined: 24 Oct 2009
Posts: 2233
Lоcаtion: Оренбург
Age: 55
Name: Юра
Спасибо!

_________________
:dash: I am happy!


Top
 Profile E-mail  
 
 
PostPosted: 06 Jan 2014 
Alive Again
User avatar
Joined: 17 Dec 2008
Posts: 4747
Lоcаtion: Курск Воронеж Оскол
Age: 44
Name: Дмитрий
:thanx:


Top
 Profile E-mail  
 
Display posts from previous:  Sort by  
Post new topic Reply to topic  [ 5 posts ] 

All times are UTC + 3 hours


Who is online

Users browsing this forum: No registered users and 1 guest


You cannot post new topics in this forum
You cannot reply to topics in this forum
You cannot edit your posts in this forum
You cannot delete your posts in this forum
You cannot post attachments in this forum

Search for:
Яндекс.Метрика
Powered by phpBB © 2000, 2002, 2005, 2007 phpBB Group