\m/ 80's metal \m/

Информационно-аналитический форум "80 см пыли" (In Search We Trust) "У нас никто никуда не спешит"
Me For You - http://me-4u.com
It is currently 24 Apr 2019

All times are UTC + 3 hours

Spoiler
Chat - temporary registration for foreign users (please leave your application here)







Post new topic Reply to topic  [ 35 posts ]  Go to page Previous  1, 2
Author Message
 
PostPosted: 16 Jul 2008 
.
User avatar
Joined: 25 Aug 2007
Posts: 568
Lоcаtion: Москва
Age: 107
Name: Kostolom
Quote:
зы. Кста, а я этот альбом вообще не слушал раньше
:shok: :shok: :shok:

2 Glot: это ператко, у меня тоже такой есть :) Только...вот без оби... не знаю, почему.. у тебя точно он был? Можешь и его скан выложить???


Top
 Profile  
 
 
PostPosted: 16 Jul 2008 
Прокъмитолист
User avatar
Joined: 12 Aug 2007
Posts: 6545
Lоcаtion: Санктъ-Петербуркъ
Age: 51
Name: Олекъ
Scatterbrain wrote:
зы. Кста, а я этот альбом вообще не слушал раньше

:shok: поцаны, шо мы делаем на етом попсовом ресурсе? :shok: :crazy:

_________________
прокъметол - это музыко, от которово есть прок (ы)


Top
 Profile  
 
 
PostPosted: 16 Jul 2008 
Хиппей (support team)
User avatar
Joined: 30 Jul 2007
Posts: 111813
Lоcаtion: Киев (Kyiv, UA)
Age: 45
Name: Andrey
Да валите на мастдай :crazy: Мне ранние GD, наряду с таким же Exciter, не нравились сугубо из-за визжащего и специфического вокала :dash:


Top
 Profile E-mail  
 
 
PostPosted: 16 Jul 2008 
труъ антисионист
User avatar
Joined: 01 Aug 2007
Posts: 4541
Lоcаtion: Откуда и большинство из нас
Age: 38
Name: Дядя Вова
Kostolom
Оби у меня уже не остался, знал бы что такое дело оставил бы :oops:

_________________
Image
Image


Top
 Profile  
 
 
PostPosted: 24 Oct 2009 
5-speed satisfactor
User avatar
Joined: 16 Feb 2009
Posts: 3723
Lоcаtion: New York, USA
Age: 41
Name: Leonid
У меня родной есть. Не пиратский. Из Японии привезли. Еще 2ой Witch Hunter/War Games. Кому-нить надо?

_________________
Death rules! Metal to all who oppose!


Top
 Profile  
 
 
PostPosted: 24 Oct 2009 
Дежурный по КУПу
User avatar
Joined: 17 Aug 2007
Posts: 5871
Age: 50
Name: Ге
:oops:
Мне надо... :thanx:

_________________
http://jp-mania.ru/
http://jp-tourdates.ucoz.ru/


Top
 Profile  
 
 
PostPosted: 24 Oct 2009 
5-speed satisfactor
User avatar
Joined: 16 Feb 2009
Posts: 3723
Lоcаtion: New York, USA
Age: 41
Name: Leonid
HMB + Bonus только?

_________________
Death rules! Metal to all who oppose!


Top
 Profile  
 
 
PostPosted: 24 Oct 2009 
Дежурный по КУПу
User avatar
Joined: 17 Aug 2007
Posts: 5871
Age: 50
Name: Ге
Я, если можно, и от обоих бы не отказался :oops:

_________________
http://jp-mania.ru/
http://jp-tourdates.ucoz.ru/


Top
 Profile  
 
 
PostPosted: 24 Oct 2009 
5-speed satisfactor
User avatar
Joined: 16 Feb 2009
Posts: 3723
Lоcаtion: New York, USA
Age: 41
Name: Leonid
Ок. Дай мине некоторое время.

_________________
Death rules! Metal to all who oppose!


Top
 Profile  
 
 
PostPosted: 24 Oct 2009 
5-speed satisfactor
User avatar
Joined: 16 Feb 2009
Posts: 3723
Lоcаtion: New York, USA
Age: 41
Name: Leonid
http://www.megaupload.com/?d=R534HDAP

cue
REM GENRE "Heavy Metal"
REM DATE 1984
REM DISCID 01123C13
REM COMMENT "ExactAudioCopy v0.99pb5"
PERFORMER "Grave Digger"
TITLE "Heavy Metal Breakdown/Rare Tracks "
FILE "Grave Digger - Heavy Metal Breakdown + Rare Tracks.wav" WAVE
TRACK 01 AUDIO
TITLE "Headbanging Man"
PERFORMER "Grave Digger"
INDEX 00 00:00:00
INDEX 01 00:00:37
TRACK 02 AUDIO
TITLE "Heavy Metal Breakdown"
PERFORMER "Grave Digger"
INDEX 00 03:37:06
INDEX 01 03:37:42
TRACK 03 AUDIO
TITLE "Back From The War"
PERFORMER "Grave Digger"
INDEX 00 07:19:16
INDEX 01 07:19:52
TRACK 04 AUDIO
TITLE "Yesterday"
PERFORMER "Grave Digger"
INDEX 01 12:55:22
TRACK 05 AUDIO
TITLE "We Wanna Rock You"
PERFORMER "Grave Digger"
INDEX 00 18:01:01
INDEX 01 18:01:37
TRACK 06 AUDIO
TITLE "Legion Of The Lost"
PERFORMER "Grave Digger"
INDEX 00 22:17:56
INDEX 01 22:19:15
TRACK 07 AUDIO
TITLE "Tyrant"
PERFORMER "Grave Digger"
INDEX 00 27:12:58
INDEX 01 27:13:22
TRACK 08 AUDIO
TITLE "2000 Lightyears From Home"
PERFORMER "Grave Digger"
INDEX 00 30:30:26
INDEX 01 30:30:62
TRACK 09 AUDIO
TITLE "Heart Attack"
PERFORMER "Grave Digger"
INDEX 00 33:24:53
INDEX 01 33:25:15
TRACK 10 AUDIO
TITLE "Violence"
PERFORMER "Grave Digger"
INDEX 00 36:42:03
INDEX 01 36:42:40
TRACK 11 AUDIO
TITLE "Shoot Her Down"
PERFORMER "Grave Digger"
INDEX 00 41:25:73
INDEX 01 41:27:62
TRACK 12 AUDIO
TITLE "We Wanna Rock You"
PERFORMER "Grave Digger"
INDEX 00 45:07:03
INDEX 01 45:08:60
TRACK 13 AUDIO
TITLE "Storming The Brain"
PERFORMER "Grave Digger"
INDEX 00 48:45:53
INDEX 01 48:47:70
TRACK 14 AUDIO
TITLE "Shine On"
PERFORMER "Grave Digger"
INDEX 00 53:53:58
INDEX 01 53:56:00
TRACK 15 AUDIO
TITLE "Tears Of Blood"
PERFORMER "Grave Digger"
INDEX 00 59:10:36
INDEX 01 59:12:35
TRACK 16 AUDIO
TITLE "Don't Kill The Children"
PERFORMER "Grave Digger"
INDEX 00 61:49:63
INDEX 01 61:51:00
TRACK 17 AUDIO
TITLE "Girls Of Rock And Roll"
PERFORMER "Grave Digger"
INDEX 00 65:07:68
INDEX 01 65:09:72
TRACK 18 AUDIO
TITLE "Stronger Than Ever"
PERFORMER "Grave Digger"
INDEX 00 68:51:68
INDEX 01 68:53:05
TRACK 19 AUDIO
TITLE "I Don't Need Your Love"
PERFORMER "Grave Digger"
INDEX 00 73:24:33
INDEX 01 73:26:47

_________________
Death rules! Metal to all who oppose!


Top
 Profile  
 
 
PostPosted: 24 Oct 2009 
5-speed satisfactor
User avatar
Joined: 16 Feb 2009
Posts: 3723
Lоcаtion: New York, USA
Age: 41
Name: Leonid
http://www.megaupload.com/?d=P0VFNSS1

cue
REM GENRE "Heavy Metal"
REM DATE 1986
REM DISCID 2411D613
REM COMMENT "ExactAudioCopy v0.99pb5"
PERFORMER "Grave Digger"
TITLE "Witch Hunter / War Games"
FILE "Grave Digger - Witch Hunter + War Games.flac" WAVE
TRACK 01 AUDIO
TITLE "Witch Hunter"
PERFORMER "Grave Digger"
INDEX 00 00:00:00
INDEX 01 00:00:37
TRACK 02 AUDIO
TITLE "Night Drifter"
PERFORMER "Grave Digger"
INDEX 00 04:24:38
INDEX 01 04:25:00
TRACK 03 AUDIO
TITLE "Get Ready For Power"
PERFORMER "Grave Digger"
INDEX 00 07:34:53
INDEX 01 07:35:12
TRACK 04 AUDIO
TITLE "Love Is A Game"
PERFORMER "Grave Digger"
INDEX 00 12:40:01
INDEX 01 12:40:37
TRACK 05 AUDIO
TITLE "Get Away"
PERFORMER "Grave Digger"
INDEX 00 18:23:46
INDEX 01 18:24:07
TRACK 06 AUDIO
TITLE "Fight For Freedom"
PERFORMER "Grave Digger"
INDEX 01 21:23:35
TRACK 07 AUDIO
TITLE "School's Out"
PERFORMER "Grave Digger"
INDEX 00 25:15:63
INDEX 01 25:17:25
TRACK 08 AUDIO
TITLE "Friends Of Mine"
PERFORMER "Grave Digger"
INDEX 00 27:58:38
INDEX 01 27:58:72
TRACK 09 AUDIO
TITLE "Here I Stand"
PERFORMER "Grave Digger"
INDEX 00 33:21:51
INDEX 01 33:22:12
TRACK 10 AUDIO
TITLE "Keep On Rockin'"
PERFORMER "Grave Digger"
INDEX 00 38:11:68
INDEX 01 38:14:30
TRACK 11 AUDIO
TITLE "Heaven Can Wait"
PERFORMER "Grave Digger"
INDEX 01 41:33:67
TRACK 12 AUDIO
TITLE "Fire In Your Eyes"
PERFORMER "Grave Digger"
INDEX 01 45:07:15
TRACK 13 AUDIO
TITLE "Let Your Heads Roll"
PERFORMER "Grave Digger"
INDEX 01 48:51:57
TRACK 14 AUDIO
TITLE "Love Is Breaking My Heart"
PERFORMER "Grave Digger"
INDEX 01 52:58:00
TRACK 15 AUDIO
TITLE "Paradise"
PERFORMER "Grave Digger"
INDEX 01 57:03:65
TRACK 16 AUDIO
TITLE "(Enola Gay) Drop The Bomb"
PERFORMER "Grave Digger"
INDEX 01 61:17:00
TRACK 17 AUDIO
TITLE "Fallout"
PERFORMER "Grave Digger"
INDEX 01 64:42:42
TRACK 18 AUDIO
TITLE "Playin' Fools"
PERFORMER "Grave Digger"
INDEX 01 69:36:70
TRACK 19 AUDIO
TITLE "The End"
PERFORMER "Grave Digger"
INDEX 01 73:33:10

_________________
Death rules! Metal to all who oppose!


Top
 Profile  
 
 
PostPosted: 25 Oct 2009 
Дежурный по КУПу
User avatar
Joined: 17 Aug 2007
Posts: 5871
Age: 50
Name: Ге
Леонид, спасибо :true: :thanx:
А логи есть... вместо куев лучше их показывать :oops:

_________________
http://jp-mania.ru/
http://jp-tourdates.ucoz.ru/


Top
 Profile  
 
 
PostPosted: 25 Oct 2009 
5-speed satisfactor
User avatar
Joined: 16 Feb 2009
Posts: 3723
Lоcаtion: New York, USA
Age: 41
Name: Leonid
Если тебе не нужен куй, ты на треки сам разбивать будешь? Логов нет. А зачем они тебе? Поверь мне - рип 1 в 1 с правильным смещением и т.д. Я ж их не брал на инете, а рипал сам со своих CD.

_________________
Death rules! Metal to all who oppose!


Top
 Profile  
 
 
PostPosted: 25 Oct 2009 
Дежурный по КУПу
User avatar
Joined: 17 Aug 2007
Posts: 5871
Age: 50
Name: Ге
Понятно.

_________________
http://jp-mania.ru/
http://jp-tourdates.ucoz.ru/


Top
 Profile  
 
 
PostPosted: 27 Oct 2009 
Metal Collector
User avatar
Joined: 16 Nov 2008
Posts: 1238
Lоcаtion: Химки
Age: 36
Name: Андрей
Главное в таком случае самому быть уверенным, что рипаешь с правильными настройками. Я как-то раздавал свои рипы без логов и говорил, что там всё верно, а на самом деле не был отключен кэш, но я считал, что так и надо :)

За Диггеры спасибо!


Top
 Profile E-mail  
 
Display posts from previous:  Sort by  
Post new topic Reply to topic  [ 35 posts ]  Go to page Previous  1, 2

All times are UTC + 3 hours


Who is online

Users browsing this forum: No registered users and 1 guest


You cannot post new topics in this forum
You cannot reply to topics in this forum
You cannot edit your posts in this forum
You cannot delete your posts in this forum
You cannot post attachments in this forum

Search for:
Яндекс.Метрика
Powered by phpBB © 2000, 2002, 2005, 2007 phpBB Group