\m/ 80's metal \m/

Информационно-аналитический форум "80 см пыли" (In Search We Trust) "У нас никто никуда не спешит"
Me For You - http://me-4u.com
It is currently 18 Feb 2019

All times are UTC + 3 hours

Spoiler
Chat - temporary registration for foreign users (please leave your application here)







Post new topic Reply to topic  [ 8 posts ] 
Author Message
 
PostPosted: 16 Jul 2012 
Пионэръ
Joined: 15 Jul 2012
Posts: 22
Lоcаtion: israel
Name: slava
Image

Genre: Hard Rock/NWOBHM
Location: England
Format: WAV+image+cue
Size: 262 Mb

Line-up:
Paul Gaskin-guitars,vocal
Bren Spencer-vocal
Dave Norman-drums
Baggy-bass

01-dirty money
02-free man
03-just like a movie star
04-say your last word
05-broken up
06-ready for love
07-come back to me
08-high crime zone
09-queen of flames
10-no way out

http://narod.ru/disk/56575360001.2ac87b ... n.rar.html

cue
PERFORMER "Gaskin"
TITLE "No Way Out"
FILE "Gaskin - No Way Out.wav" WAVE
TRACK 01 AUDIO
TITLE "Dirty Money "
PERFORMER "Gaskin"
INDEX 00 00:00:00
INDEX 01 00:00:00
TRACK 02 AUDIO
TITLE "Free Man "
PERFORMER "Gaskin"
INDEX 01 03:37:70
TRACK 03 AUDIO
TITLE "Just Like a Movie Star "
PERFORMER "Gaskin"
INDEX 01 07:05:08
TRACK 04 AUDIO
TITLE "Say Your Last Word "
PERFORMER "Gaskin"
INDEX 01 10:14:25
TRACK 05 AUDIO
TITLE "Broken Up "
PERFORMER "Gaskin"
INDEX 01 14:07:54
TRACK 06 AUDIO
TITLE "Ready for Love "
PERFORMER "Gaskin"
INDEX 01 18:04:41
TRACK 07 AUDIO
TITLE "Come Back to Me "
PERFORMER "Gaskin"
INDEX 01 21:49:50
TRACK 08 AUDIO
TITLE "High Crime Zone "
PERFORMER "Gaskin"
INDEX 01 26:18:74
TRACK 09 AUDIO
TITLE "Queen of Flames "
PERFORMER "Gaskin"
INDEX 01 29:07:66
TRACK 10 AUDIO
TITLE "No Way Out "
PERFORMER "Gaskin"
INDEX 01 32:40:46

spectrum
Image


Top
 Profile E-mail  
 
 
PostPosted: 16 Jul 2012 
Old Time Rock`n`Roll
User avatar
Joined: 23 Jun 2008
Posts: 3389
Lоcаtion: г.Ульяновск
Age: 40
Name: Константин
:thanx:


Top
 Profile  
 
 
PostPosted: 16 Jul 2012 
Хиппей (support team)
User avatar
Joined: 30 Jul 2007
Posts: 110315
Lоcаtion: Киев (Kyiv, UA)
Age: 45
Name: Andrey
Пол Гаскин - это труъ :true:

:thanx:

mirror: MultiUp l Narod

_________________


Top
 Profile E-mail  
 
 
PostPosted: 17 Jul 2012 
Генеральный thrasher
User avatar
Joined: 03 Oct 2008
Posts: 3599
Lоcаtion: Ханты-Мансийский АО
Age: 44
Name: Сергей
:thanx: :losik:


Top
 Profile  
 
 
PostPosted: 18 Jul 2012 
А может смените мне статус?..
User avatar
Joined: 30 Aug 2009
Posts: 824
Lоcаtion: Ачинск, Красноярский край
Age: 33
Name: Стас
:thanx:


Top
 Profile E-mail  
 
 
PostPosted: 18 Jul 2012 
Хиппей (support team)
User avatar
Joined: 30 Jul 2007
Posts: 110315
Lоcаtion: Киев (Kyiv, UA)
Age: 45
Name: Andrey
Приятный альбом в стиле хард-рок и на стыке хэви. Классика, однако :meloman:

_________________


Top
 Profile E-mail  
 
 
PostPosted: 25 Aug 2012 
труъ антисионист
User avatar
Joined: 01 Aug 2007
Posts: 4541
Lоcаtion: Откуда и большинство из нас
Age: 38
Name: Дядя Вова
Благодарствую :iii:

_________________
Image
Image


Top
 Profile  
 
 
PostPosted: 25 Aug 2012 
Я набрал 1000 сообщений!
Joined: 24 Oct 2009
Posts: 2165
Lоcаtion: Оренбург
Age: 55
Name: Юра
И от меня... :thanx:

_________________
:dash: I am happy!


Top
 Profile E-mail  
 
Display posts from previous:  Sort by  
Post new topic Reply to topic  [ 8 posts ] 

All times are UTC + 3 hours


Who is online

Users browsing this forum: No registered users and 2 guests


You cannot post new topics in this forum
You cannot reply to topics in this forum
You cannot edit your posts in this forum
You cannot delete your posts in this forum
You cannot post attachments in this forum

Search for:
Яндекс.Метрика
Powered by phpBB © 2000, 2002, 2005, 2007 phpBB Group