\m/ 80's metal \m/

Информационно-аналитический форум "80 см пыли" (In Search We Trust) "У нас никто никуда не спешит"
Me For You - http://me-4u.com
It is currently 10 Dec 2019

All times are UTC + 3 hours

Spoiler
Chat - temporary registration for foreign users (please leave your application here)







Post new topic Reply to topic  [ 12 posts ] 
Author Message
 
PostPosted: 07 Jan 2011 
Персональный статус
User avatar
Joined: 29 Jan 2009
Posts: 265
Lоcаtion: Таллин, Эстония.
Age: 32
Name: Роман Юрич
Forbidden - Forbidden Evil 1988 [WV] [1st Press] [Combat]

Image

Band / Название Группы: Forbidden
Album title / Название Альбома : Forbidden Evil
Year / Год Выпуска : 1988
Genre / Жанр: Thrash Metal
Country / Страна : USA

Track list / Список Песен

01. 04:33 Chalice Of Blood
02. 04:19 Off The Edge
03. 06:26 Through Eyes Of Glass
04. 05:44 Forbidden Evil
05. 05:09 March Into Fire
06. 05:15 Feel No Pain
07. 04:17 As Good As Dead
08. 07:02 Follow Me


Technical info / Технические данные .

Source / Источник : CD
Format / Формат : WavPack, Lossless Very High Compression.
Resolution / Разрешение : 44 KHz / 16 Bit
Total playing time / Суммарное время проигрывания : 42:46
Album art / Полиграфия: Booklet, back cover, CD.
Буклет, задняя обложка, диск.

Comment / Комментарий
Ripped from the first press CD which was released under Combat.
Рип сделан с первого издания, выпущенного под Combat.

"EAC Log"
Exact Audio Copy V0.99 prebeta 5 from 4. May 2009

EAC extraction logfile from 5. January 2011, 18:28

Forbidden / Forbidden Evil

Used drive : ASUS DRW-1814BLT Adapter: 3 ID: 0

Read mode : Secure
Utilize accurate stream : Yes
Defeat audio cache : Yes
Make use of C2 pointers : No

Read offset correction : 6
Overread into Lead-In and Lead-Out : No
Fill up missing offset samples with silence : Yes
Delete leading and trailing silent blocks : No
Null samples used in CRC calculations : Yes
Used interface : Installed external ASPI interface

Used output format : Internal WAV Routines
Sample format : 44.100 Hz; 16 Bit; Stereo


TOC of the extracted CD

Track | Start | Length | Start sector | End sector
---------------------------------------------------------
1 | 0:00.47 | 4:33.33 | 47 | 20554
2 | 4:34.05 | 4:18.47 | 20555 | 39951
3 | 8:52.52 | 6:26.15 | 39952 | 68916
4 | 15:18.67 | 5:44.28 | 68917 | 94744
5 | 21:03.20 | 5:09.20 | 94745 | 117939
6 | 26:12.40 | 5:15.35 | 117940 | 141599
7 | 31:28.00 | 4:16.40 | 141600 | 160839
8 | 35:44.40 | 7:01.47 | 160840 | 192461


Range status and errors

Selected range

Filename F:\Vinyl ; CD ; Tape Rips\# Lossless Temp\Forbidden (1988) - Forbidden Evil [WV]\Forbidden (1988) - Forbidden Evil - WV.wav

Peak level 94.2 %
Range quality 100.0 %
Test CRC 9699877E
Copy CRC 9699877E
Copy OK

No errors occurred


AccurateRip summary

Track 1 not present in database
Track 2 not present in database
Track 3 not present in database
Track 4 not present in database
Track 5 not present in database
Track 6 not present in database
Track 7 not present in database
Track 8 not present in database

None of the tracks are present in the AccurateRip database

End of status report


"CUE Sheet"
REM GENRE Metal
REM DATE 1988
REM DISCID 660A0608
REM COMMENT "ExactAudioCopy v0.99pb5"
PERFORMER "Forbidden"
TITLE "Forbidden Evil"
FILE "Forbidden (1988) - Forbidden Evil - WV.wv" WAVE
TRACK 01 AUDIO
TITLE "Chalice Of Blood"
PERFORMER "Forbidden"
INDEX 00 00:00:00
INDEX 01 00:00:47
TRACK 02 AUDIO
TITLE "Off The Edge"
PERFORMER "Forbidden"
INDEX 01 04:34:05
TRACK 03 AUDIO
TITLE "Through Eyes Of Glass"
PERFORMER "Forbidden"
INDEX 00 08:51:52
INDEX 01 08:52:52
TRACK 04 AUDIO
TITLE "Forbidden Evil"
PERFORMER "Forbidden"
INDEX 00 15:17:40
INDEX 01 15:18:67
TRACK 05 AUDIO
TITLE "March Into Fire"
PERFORMER "Forbidden"
INDEX 00 21:00:35
INDEX 01 21:03:20
TRACK 06 AUDIO
TITLE "Feel No Pain"
PERFORMER "Forbidden"
INDEX 01 26:12:40
TRACK 07 AUDIO
TITLE "As Good As Dead"
PERFORMER "Forbidden"
INDEX 00 31:27:00
INDEX 01 31:28:00
TRACK 08 AUDIO
TITLE "Follow Me"
PERFORMER "Forbidden"
INDEX 00 35:43:40
INDEX 01 35:44:40


Links / Ссылки

Rapidshare
Sendspace
Megaupload
MultiUpload

MP3 320 Kbps

_________________
Death The Ultimate Reality
Death The Ultimate Reason To Live


Last edited by MetalMilitia on 08 Jan 2011, edited 2 times in total.

Top
 Profile  
 
 
PostPosted: 07 Jan 2011 
Thrasher
User avatar
Joined: 07 Oct 2007
Posts: 2782
Lоcаtion: Russia, Moscow
Age: 35
Name: Drunk & Evil
:true: :true: :true:

Quote:
Welcome to the church of lies!!!!
Doves will die, A priest will cry, Man will tithe
Welcome to the church of lies!!!!!!!!!
Chalice of blood, Waits to fill us, Chalice of blood


:true: :true: :true:

_________________
ВОДКА, БАБЫ И БЛЮЗ / 40° till death... :bodun:
One time we saw some hookers, but when we got closer, we realised it was Mötley Crüe. ©


Top
 Profile  
 
 
PostPosted: 07 Jan 2011 
Хиппей (support team)
User avatar
Joined: 30 Jul 2007
Posts: 116047
Lоcаtion: Киев (Kyiv, UA)
Age: 46
Name: Andrey
:thanx: :true: :true: :true:

_________________


Top
 Profile E-mail  
 
 
PostPosted: 07 Jan 2011 
труъ антисионист
User avatar
Joined: 01 Aug 2007
Posts: 4544
Lоcаtion: Откуда и большинство из нас
Age: 39
Name: Дядя Вова
Да, Chalice Of Blood однозначно лучшая вещь группы :true:

_________________
Image
Image


Top
 Profile  
 
 
PostPosted: 08 Jan 2011 
metallpaparazzy
User avatar
Joined: 20 Dec 2009
Posts: 674
Lоcаtion: Днепропетровск
Age: 44
Name: Геннадий
:thanx: :thanx: :thanx:
:true: :true: :true:


Top
 Profile E-mail  
 
 
PostPosted: 08 Jan 2011 
дядя Миша
User avatar
Joined: 17 Oct 2008
Posts: 3202
Lоcаtion: USSR
Age: 57
Name: Khy
Спасибо! Хорошо звучат , заразы!!!!! 2010 тоже в кайф.


Top
 Profile  
 
 
PostPosted: 08 Jan 2011 
Old Time Rock`n`Roll
User avatar
Joined: 23 Jun 2008
Posts: 3505
Lоcаtion: г.Ульяновск
Age: 41
Name: Константин
Спасибо за оба альбома :thanx:


Top
 Profile  
 
 
PostPosted: 09 Jan 2011 
Motörheadache
User avatar
Joined: 04 Feb 2010
Posts: 1294
Lоcаtion: Впереди- горы,позади-степи
Age: 46
Name: Александр
Ром,спасибо за альбом ! :thanx: :true: :true:

_________________
Eine Nation, Ein Land, Eine Schnaps!

Наш священный долг:защищать Родину,и соблюдать правила личной гигиены....!


Top
 Profile E-mail  
 
 
PostPosted: 05 May 2015 
Персональный статус
Joined: 21 Aug 2009
Posts: 258
Name: alexandr
будьте добры перезалейте этот первопресс.(ссылки померли) :true:


Top
 Profile E-mail  
 
 
PostPosted: 05 May 2015 
\m/ 80 см сала \m/
User avatar
Joined: 12 Mar 2012
Posts: 2590
Age: 26
Name: Nick
Вот здесь есть с такого же диска: http://rutracker.org/forum/viewtopic.php?t=4797314

_________________
1990 AUROPHON BRAINSTORM (Germany) - lossless
1994 MAUSOLEUM CLASSIX (Belgium-Germany) - lossless
1998 VA - GRIM HARVEST - Complete Metal Massacre Volumes I-XII


Top
 Profile  
 
 
PostPosted: 07 May 2015 
Хиппей (support team)
User avatar
Joined: 30 Jul 2007
Posts: 116047
Lоcаtion: Киев (Kyiv, UA)
Age: 46
Name: Andrey
Forbidden - 1988 - Forbidden Evil (1988, Combat-Relativity, 88561-8257-2, USA) [flac]

Image

mirror: iFolder l Narod l M-Cloud

log
Exact Audio Copy V1.0 beta 3 from 29. August 2011

EAC extraction logfile from 16. July 2014, 15:41

Forbidden / Forbidden Evil (Combat-Relativity, 88561-8257-2, USA)

Used drive : MATSHITABD-CMB UJ160 Adapter: 0 ID: 0

Read mode : Secure
Utilize accurate stream : Yes
Defeat audio cache : Yes
Make use of C2 pointers : No

Read offset correction : 103
Overread into Lead-In and Lead-Out : No
Fill up missing offset samples with silence : Yes
Delete leading and trailing silent blocks : No
Null samples used in CRC calculations : Yes
Used interface : Native Win32 interface for Win NT & 2000

Used output format : User Defined Encoder
Selected bitrate : 1024 kBit/s
Quality : High
Add ID3 tag : No
Command line compressor : C:\Program Files (x86)\FLAC\flac.exe
Additional command line options : -V -8 -T "Date=%year%" -T "Genre=%genre%" %source%


TOC of the extracted CD

Track | Start | Length | Start sector | End sector
---------------------------------------------------------
1 | 0:00.47 | 4:33.33 | 47 | 20554
2 | 4:34.05 | 4:18.47 | 20555 | 39951
3 | 8:52.52 | 6:26.15 | 39952 | 68916
4 | 15:18.67 | 5:44.28 | 68917 | 94744
5 | 21:03.20 | 5:09.20 | 94745 | 117939
6 | 26:12.40 | 5:15.35 | 117940 | 141599
7 | 31:28.00 | 4:16.40 | 141600 | 160839
8 | 35:44.40 | 7:01.47 | 160840 | 192461


Range status and errors

Selected range

Filename D:\Ripped By liveevil\Forbidden - Forbidden Evil (Combat-Relativity, 88561-8257-2, USA).wav

Peak level 94.2 %
Extraction speed 4.0 X
Range quality 100.0 %
Test CRC 3C894779
Copy CRC 3C894779
Copy OK

No errors occurred


AccurateRip summary

Track 1 cannot be verified as accurate (confidence 2) [9147AD0D], AccurateRip returned [EBADA3F4] (AR v2)
Track 2 cannot be verified as accurate (confidence 2) [DE90C8EB], AccurateRip returned [65A49857] (AR v2)
Track 3 cannot be verified as accurate (confidence 2) [BBD88A5A], AccurateRip returned [232124B7] (AR v2)
Track 4 cannot be verified as accurate (confidence 2) [EAEC068D], AccurateRip returned [6D17CAE9] (AR v2)
Track 5 cannot be verified as accurate (confidence 2) [5A026AC9], AccurateRip returned [34316D0E] (AR v2)
Track 6 cannot be verified as accurate (confidence 2) [C43FB99F], AccurateRip returned [5F3D6F63] (AR v2)
Track 7 cannot be verified as accurate (confidence 2) [3619E8F9], AccurateRip returned [20086DCD] (AR v2)
Track 8 cannot be verified as accurate (confidence 2) [0E6C591A], AccurateRip returned [A947C9C7] (AR v2)

No tracks could be verified as accurate
You may have a different pressing from the one(s) in the database

End of status report

==== Log checksum 36A5E9C46B172E792A055EF7672340793735B2922D46A672E42D2A49B8DCB5C4 ====

cue
REM GENRE "Thrash Metal"
REM DATE 1988
REM DISCID 660A0608
REM COMMENT "ExactAudioCopy v1.0b3"
PERFORMER "Forbidden"
TITLE "Forbidden Evil (Combat/Relativity, 88561-8257-2, USA)"
FILE "Forbidden - Forbidden Evil (Combat-Relativity, 88561-8257-2, USA).flac" WAVE
TRACK 01 AUDIO
TITLE "Chalice Of Blood"
PERFORMER "Forbidden"
INDEX 00 00:00:00
INDEX 01 00:00:47
TRACK 02 AUDIO
TITLE "Off The Edge"
PERFORMER "Forbidden"
INDEX 01 04:34:05
TRACK 03 AUDIO
TITLE "Through Eyes Of Glass"
PERFORMER "Forbidden"
INDEX 00 08:51:52
INDEX 01 08:52:52
TRACK 04 AUDIO
TITLE "Forbidden Evil"
PERFORMER "Forbidden"
INDEX 00 15:17:40
INDEX 01 15:18:67
TRACK 05 AUDIO
TITLE "March Into Fire"
PERFORMER "Forbidden"
INDEX 00 21:00:35
INDEX 01 21:03:20
TRACK 06 AUDIO
TITLE "Feel No Pain"
PERFORMER "Forbidden"
INDEX 01 26:12:40
TRACK 07 AUDIO
TITLE "As Good As Dead"
PERFORMER "Forbidden"
INDEX 00 31:27:00
INDEX 01 31:28:00
TRACK 08 AUDIO
TITLE "Follow Me"
PERFORMER "Forbidden"
INDEX 00 35:43:40
INDEX 01 35:44:40

_________________


Top
 Profile E-mail  
 
 
PostPosted: 07 May 2015 
Хиппей (support team)
User avatar
Joined: 30 Jul 2007
Posts: 116047
Lоcаtion: Киев (Kyiv, UA)
Age: 46
Name: Andrey
Как-то раньше эту группу очень уважал. Но... никогда полных альбомов не слушал. В основном или по радио (Югославия, Румыния, Польша) несколько новых (на тот момент) вещей крутили, то на дописях где-то попадались кассетных. В общем, отношение было более чем хорошее, група у меня даже в фаворитах была.
А сейчас, слушая дебютник, не понимаю, как я мог не заметить тогда такой противный вокал :(
Товарищ Расс Андерсон опрометчиво косит под Бобби Элсфорта (особенно на "Feel The Pain") и немного Чака Билли и... нелепо повизгивает при этом :yyy:
4 раза послушал альбом, в итоге - музыка и бэк-вокальные партии нравятся, а вот манера пения основного вокалиста портит весь аппетит :fingal:
Надеюсь, дальше или он или я, изменимся =)

Без оценки.

Да, и не трэш это ещё, а скорее Speed/Power :pardon:

_________________


Top
 Profile E-mail  
 
Display posts from previous:  Sort by  
Post new topic Reply to topic  [ 12 posts ] 

All times are UTC + 3 hours


Who is online

Users browsing this forum: No registered users and 1 guest


You cannot post new topics in this forum
You cannot reply to topics in this forum
You cannot edit your posts in this forum
You cannot delete your posts in this forum
You cannot post attachments in this forum

Search for:
Яндекс.Метрика
cron
Powered by phpBB © 2000, 2002, 2005, 2007 phpBB Group