\m/ 80's metal \m/

Информационно-аналитический форум "80 см пыли" (In Search We Trust) "У нас никто никуда не спешит"
Me For You - http://me-4u.com
It is currently 10 Dec 2019

All times are UTC + 3 hours

Spoiler
Chat - temporary registration for foreign users (please leave your application here)







Post new topic Reply to topic  [ 17 posts ] 
Author Message
 
PostPosted: 22 Dec 2010 
Работнечег
User avatar
Joined: 28 Aug 2007
Posts: 6086
Lоcаtion: г. Москва
Age: 30
Name: Дима
Image

Year: 1994
Label: Concept Records
Country: Belgium
Style: Heavy Metal
Format: Flac+Cue+Log + Covers
Size: 402 Mb

Line-Up:
Steve Rodgers - vocals
Robby Mildenberger -guitar
Chris Forthomme - bass
Alex Vesper - drums (session)


Tracklist:
1. A Million Miles from You 04:04
2. Incredible Man 04:14
3. It Doesn't Matter 04:23
4. I Will See You Again 05:18
5. Space Cake Boogie 03:27
6. More Than My Life 03:59
7. Fire 03:45
8. If I Could 05:03
9. Run & Never Stop 03:52
10. Stop That Joke 03:54
11. I've Got the Feeling 04:15
12. Sunrise to Sunset 04:30
13. Live Your Dreams 03:50
Total playing time 54:34

LOG
Exact Audio Copy V0.99 prebeta 5 from 4. May 2009

EAC extraction logfile from 11. December 2010, 14:33

F.N. Guns / Take It

Used drive : PIONEER DVD-RW DVR-116D Adapter: 0 ID: 0

Read mode : Secure
Utilize accurate stream : Yes
Defeat audio cache : Yes
Make use of C2 pointers : No

Read offset correction : 96
Overread into Lead-In and Lead-Out : No
Fill up missing offset samples with silence : Yes
Delete leading and trailing silent blocks : No
Null samples used in CRC calculations : Yes
Used interface : Native Win32 interface for Win NT & 2000

Used output format : User Defined Encoder
Selected bitrate : 32 kBit/s
Quality : High
Add ID3 tag : No
Command line compressor : C:\Program Files\Exact Audio Copy\Flac\flac.exe
Additional command line options : -6 -V %s


TOC of the extracted CD

Track | Start | Length | Start sector | End sector
---------------------------------------------------------
1 | 0:00.33 | 4:04.25 | 33 | 18357
2 | 4:04.58 | 4:14.10 | 18358 | 37417
3 | 8:18.68 | 4:23.22 | 37418 | 57164
4 | 12:42.15 | 5:17.53 | 57165 | 80992
5 | 17:59.68 | 3:26.55 | 80993 | 96497
6 | 21:26.48 | 3:59.20 | 96498 | 114442
7 | 25:25.68 | 3:45.25 | 114443 | 131342
8 | 29:11.18 | 5:03.27 | 131343 | 154094
9 | 34:14.45 | 3:52.35 | 154095 | 171529
10 | 38:07.05 | 3:53.63 | 171530 | 189067
11 | 42:00.68 | 4:15.12 | 189068 | 208204
12 | 46:16.05 | 4:30.00 | 208205 | 228454
13 | 50:46.05 | 3:49.43 | 228455 | 245672


Range status and errors

Selected range

Filename D:\Музыка\Lossless\FN Guns - Take It (1994)\F.N. Guns - Take It.wav

Peak level 99.3 %
Range quality 99.9 %
Copy CRC 80399923
Copy OK

No errors occurred


AccurateRip summary

Track 1 not present in database
Track 2 not present in database
Track 3 not present in database
Track 4 not present in database
Track 5 not present in database
Track 6 not present in database
Track 7 not present in database
Track 8 not present in database
Track 9 not present in database
Track 10 not present in database
Track 11 not present in database
Track 12 not present in database
Track 13 not present in database

None of the tracks are present in the AccurateRip database

End of status report

CUE
REM GENRE "Heavy Metal"
REM DATE 1994
REM DISCID B40CCB0D
REM COMMENT "ExactAudioCopy v0.99pb5"
PERFORMER "F.N. Guns"
TITLE "Take It"
FILE "F.N. Guns - Take It.flac" WAVE
TRACK 01 AUDIO
TITLE "A Million Miles From You"
PERFORMER "F.N. Guns"
INDEX 00 00:00:00
INDEX 01 00:00:33
TRACK 02 AUDIO
TITLE "Incredible Man"
PERFORMER "F.N. Guns"
INDEX 01 04:04:58
TRACK 03 AUDIO
TITLE "It Doesn't Matter"
PERFORMER "F.N. Guns"
INDEX 01 08:18:68
TRACK 04 AUDIO
TITLE "I Will See You Again"
PERFORMER "F.N. Guns"
INDEX 01 12:42:15
TRACK 05 AUDIO
TITLE "Space Cake Boogie"
PERFORMER "F.N. Guns"
INDEX 01 17:59:68
TRACK 06 AUDIO
TITLE "More Than My Life"
PERFORMER "F.N. Guns"
INDEX 01 21:26:48
TRACK 07 AUDIO
TITLE "Fire"
PERFORMER "F.N. Guns"
INDEX 01 25:25:68
TRACK 08 AUDIO
TITLE "If I Could"
PERFORMER "F.N. Guns"
INDEX 01 29:11:18
TRACK 09 AUDIO
TITLE "Run & Never Stop"
PERFORMER "F.N. Guns"
INDEX 01 34:14:45
TRACK 10 AUDIO
TITLE "Stop That Joke"
PERFORMER "F.N. Guns"
INDEX 01 38:07:05
TRACK 11 AUDIO
TITLE "I've Got The Feeling"
PERFORMER "F.N. Guns"
INDEX 01 42:00:68
TRACK 12 AUDIO
TITLE "Sunrise To Sunset"
PERFORMER "F.N. Guns"
INDEX 01 46:16:05
TRACK 13 AUDIO
TITLE "Live Your Dream"
PERFORMER "F.N. Guns"
INDEX 01 50:46:05

Spectrum
Image


Ifolder.Ru
Narod.Ru


Last edited by church on 24 Dec 2010, edited 1 time in total.

Top
 Profile E-mail  
 
 
PostPosted: 23 Dec 2010 
хард н хэвщик (support team)
User avatar
Joined: 02 Jun 2008
Posts: 16881
Lоcаtion: Н.Новгород
Age: 32
Name: Артем
спасибо Дима ! :true: после дембеля распотрошу ссылочку :dance:


Top
 Profile  
 
 
PostPosted: 23 Dec 2010 
Хиппей (support team)
User avatar
Joined: 30 Jul 2007
Posts: 116047
Lоcаtion: Киев (Kyiv, UA)
Age: 46
Name: Andrey
:thanx:

_________________


Top
 Profile E-mail  
 
 
PostPosted: 23 Dec 2010 
Хиппей (support team)
User avatar
Joined: 30 Jul 2007
Posts: 116047
Lоcаtion: Киев (Kyiv, UA)
Age: 46
Name: Andrey
McKagan wrote:
после дембеля распотрошу ссылочку

Ога, если она дотянет до весны.... :fingal:

Quote:
Данный файл временно не доступен по тех.причине (no_storages) Код ошибки: 201012238da66ecfd43fd0e16d375e10

:pardon: эфпяткаем

_________________


Top
 Profile E-mail  
 
 
PostPosted: 23 Dec 2010 
Прокъмитолист
User avatar
Joined: 12 Aug 2007
Posts: 6652
Lоcаtion: Санктъ-Петербуркъ
Age: 52
Name: Олекъ
Димка, спасибо! :true:

_________________
прокъметол - это музыко, от которово есть прок (ы)


Top
 Profile  
 
 
PostPosted: 23 Dec 2010 
Работнечег
User avatar
Joined: 28 Aug 2007
Posts: 6086
Lоcаtion: г. Москва
Age: 30
Name: Дима
Чего-то ссылка так и не заработала на фолдере... Перелью на народ сегодня или завтра..


Top
 Profile E-mail  
 
 
PostPosted: 24 Dec 2010 
Хиппей (support team)
User avatar
Joined: 30 Jul 2007
Posts: 116047
Lоcаtion: Киев (Kyiv, UA)
Age: 46
Name: Andrey
church wrote:
Чего-то ссылка так и не заработала на фолдере...

Прикидываю, сколько человек за два дня (и я тож) тыкнули F5, пройдя по ссылке :nunu:

_________________


Top
 Profile E-mail  
 
 
PostPosted: 24 Dec 2010 
Работнечег
User avatar
Joined: 28 Aug 2007
Posts: 6086
Lоcаtion: г. Москва
Age: 30
Name: Дима
Добавил новую ссылку ;)


Top
 Profile E-mail  
 
 
PostPosted: 24 Dec 2010 
Хиппей (support team)
User avatar
Joined: 30 Jul 2007
Posts: 116047
Lоcаtion: Киев (Kyiv, UA)
Age: 46
Name: Andrey
:true: Ща еще парочку зафигачу :true:

_________________


Top
 Profile E-mail  
 
 
PostPosted: 24 Dec 2010 
Хиппей (support team)
User avatar
Joined: 30 Jul 2007
Posts: 116047
Lоcаtion: Киев (Kyiv, UA)
Age: 46
Name: Andrey
http://www.multiupload.com/JZDQS34G8X

_________________


Top
 Profile E-mail  
 
 
PostPosted: 24 Dec 2010 
Old Time Rock`n`Roll
User avatar
Joined: 23 Jun 2008
Posts: 3505
Lоcаtion: г.Ульяновск
Age: 41
Name: Константин
Спасибо! :thanx:


Top
 Profile  
 
 
PostPosted: 25 Dec 2010 
Пионэръ
User avatar
Joined: 08 Nov 2010
Posts: 43
Lоcаtion: Россия
Name: Юрий
church
Спасибо за отличную группу, качаю!


Top
 Profile E-mail  
 
 
PostPosted: 25 Dec 2010 
Gretzky must die
User avatar
Joined: 16 Sep 2010
Posts: 265
Lоcаtion: Московская обл.
Name: Андрей
Спасибо !!! :thanx:


Top
 Profile  
 
 
PostPosted: 25 Dec 2010 
Персональный статус
Joined: 02 Apr 2010
Posts: 223
Name: Андрей
Большое спасибо! :thanx:


Top
 Profile  
 
 
PostPosted: 20 Nov 2011 
Power Metal Maniac
User avatar
Joined: 09 Aug 2008
Posts: 6994
Lоcаtion: Москва
Age: 41
Name: Егор
:thanx:

_________________
Long Live Metal!


Top
 Profile  
 
 
PostPosted: 25 Nov 2011 
Персональный статус
User avatar
Joined: 22 Oct 2011
Posts: 352
Lоcаtion: Moscow
Age: 61
Name: Серёжа
85-й и 90-й надо кому?


Top
 Profile E-mail  
 
 
PostPosted: 25 Nov 2011 
хард н хэвщик (support team)
User avatar
Joined: 02 Jun 2008
Posts: 16881
Lоcаtion: Н.Новгород
Age: 32
Name: Артем
всё есть :bore: спасибки за все Димке Чёрч :thanx:


Top
 Profile  
 
Display posts from previous:  Sort by  
Post new topic Reply to topic  [ 17 posts ] 

All times are UTC + 3 hours


Who is online

Users browsing this forum: No registered users and 1 guest


You cannot post new topics in this forum
You cannot reply to topics in this forum
You cannot edit your posts in this forum
You cannot delete your posts in this forum
You cannot post attachments in this forum

Search for:
Яндекс.Метрика
Powered by phpBB © 2000, 2002, 2005, 2007 phpBB Group