\m/ 80's metal \m/

Информационно-аналитический форум "80 см пыли" (In Search We Trust) "У нас никто никуда не спешит"
Me For You - http://me-4u.com
It is currently 12 Dec 2019

All times are UTC + 3 hours

Spoiler
Chat - temporary registration for foreign users (please leave your application here)







Post new topic Reply to topic  [ 14 posts ] 
Author Message
 
PostPosted: 31 Mar 2010 
Работнечег
User avatar
Joined: 28 Aug 2007
Posts: 6086
Lоcаtion: г. Москва
Age: 30
Name: Дима
Image

Year: 1994
Country: Belgium
Style: Heavy Metal
Format: Flac+Cue+Log+Covers
Size: 135 Mb
Label: Mausoleum Records

Image

Tracklist:
1. Wild Child 03:29
2. Frantic Witch 03:04
3. Riding Again 03:12
4. Overpriced 03:24
5. Too Much is Not Enough 03:47
Total playing time 16:56

LOG
Exact Audio Copy V0.99 prebeta 5 from 4. May 2009

EAC extraction logfile from 31. March 2010, 11:47

FN Guns / Wild Child EP

Used drive : PIONEER DVD-RW DVR-116D Adapter: 0 ID: 0

Read mode : Secure
Utilize accurate stream : Yes
Defeat audio cache : Yes
Make use of C2 pointers : No

Read offset correction : 96
Overread into Lead-In and Lead-Out : No
Fill up missing offset samples with silence : Yes
Delete leading and trailing silent blocks : No
Null samples used in CRC calculations : Yes
Used interface : Native Win32 interface for Win NT & 2000

Used output format : User Defined Encoder
Selected bitrate : 32 kBit/s
Quality : High
Add ID3 tag : No
Command line compressor : C:\Program Files\Exact Audio Copy\Flac\flac.exe
Additional command line options : -6 -V %s


TOC of the extracted CD

Track | Start | Length | Start sector | End sector
---------------------------------------------------------
1 | 0:00.00 | 3:29.37 | 0 | 15711
2 | 3:29.37 | 3:04.13 | 15712 | 29524
3 | 6:33.50 | 3:12.30 | 29525 | 43954
4 | 9:46.05 | 3:24.20 | 43955 | 59274
5 | 13:10.25 | 3:47.70 | 59275 | 76369


Range status and errors

Selected range

Filename D:\Музыка\Lossless\FN Guns - Wild Child EP (1995)\FN Guns - Wild Child EP.wav

Peak level 99.4 %
Range quality 100.0 %
Copy CRC 017EC1AB
Copy OK

No errors occurred


AccurateRip summary

Track 1 not present in database
Track 2 not present in database
Track 3 not present in database
Track 4 not present in database
Track 5 not present in database

None of the tracks are present in the AccurateRip database

End of status report


CUE
REM GENRE "Heavy Metal"
REM DATE 1995
REM DISCID 3E03FA05
REM COMMENT "ExactAudioCopy v0.99pb5"
PERFORMER "FN Guns"
TITLE "Wild Child EP"
FILE "FN Guns - Wild Child EP.flac" WAVE
TRACK 01 AUDIO
TITLE "Wild Child"
PERFORMER "FN Guns"
INDEX 01 00:00:00
TRACK 02 AUDIO
TITLE "Frantic Witch"
PERFORMER "FN Guns"
INDEX 00 03:26:05
INDEX 01 03:29:37
TRACK 03 AUDIO
TITLE "Running Again"
PERFORMER "FN Guns"
INDEX 00 06:30:35
INDEX 01 06:33:50
TRACK 04 AUDIO
TITLE "Overpriced"
PERFORMER "FN Guns"
INDEX 00 09:43:45
INDEX 01 09:46:05
TRACK 05 AUDIO
TITLE "Too Much Is Not Enough"
PERFORMER "FN Guns"
INDEX 00 13:07:15
INDEX 01 13:10:25


Spectrum
Image


Narod.ru


Top
 Profile E-mail  
 
 
PostPosted: 31 Mar 2010 
хард н хэвщик (support team)
User avatar
Joined: 02 Jun 2008
Posts: 16881
Lоcаtion: Н.Новгород
Age: 32
Name: Артем
спасибище :true:


Top
 Profile  
 
 
PostPosted: 31 Mar 2010 
Old Time Rock`n`Roll
User avatar
Joined: 23 Jun 2008
Posts: 3505
Lоcаtion: г.Ульяновск
Age: 41
Name: Константин
:thanx:


Top
 Profile  
 
 
PostPosted: 01 Apr 2010 
Труъ
User avatar
Joined: 14 Jul 2009
Posts: 158
Lоcаtion: Hell Is Here
Age: 49
Name: Adriano
Thank You ! :true:


Top
 Profile E-mail  
 
 
PostPosted: 02 Apr 2010 
Прокъмитолист
User avatar
Joined: 12 Aug 2007
Posts: 6652
Lоcаtion: Санктъ-Петербуркъ
Age: 52
Name: Олекъ
и еще раз :thanx:

_________________
прокъметол - это музыко, от которово есть прок (ы)


Top
 Profile  
 
 
PostPosted: 12 Sep 2012 
***


Last edited by Вася_металлист_2012 on 14 Dec 2012, edited 1 time in total.

Top
  
 
 
PostPosted: 13 Oct 2012 
Работнечег
User avatar
Joined: 28 Aug 2007
Posts: 6086
Lоcаtion: г. Москва
Age: 30
Name: Дима
Никто не заметил ничего странного в начале первой и на протяжении всей 4-ой песни?

Переслушал) по поводу первого трэка ничего необычного не могу сказать, четвертый пожалуй что да, выделяется своей грязновато-винильной записью, если можно так выразиться) Спасибо, первый раз не обратил внимания! :thanx:


Top
 Profile E-mail  
 
 
PostPosted: 13 Oct 2012 
***


Last edited by Вася_металлист_2012 on 14 Dec 2012, edited 1 time in total.

Top
  
 
 
PostPosted: 13 Oct 2012 
Работнечег
User avatar
Joined: 28 Aug 2007
Posts: 6086
Lоcаtion: г. Москва
Age: 30
Name: Дима
Я так предполагаю, что при мастеринге на сиди так накосячили... почистить забыли :crazy:


Top
 Profile E-mail  
 
 
PostPosted: 29 Oct 2013 
\m/ 80 см сала \m/
User avatar
Joined: 12 Mar 2012
Posts: 2590
Age: 26
Name: Nick
Дим, можешь перелить? :lloo:

_________________
1990 AUROPHON BRAINSTORM (Germany) - lossless
1994 MAUSOLEUM CLASSIX (Belgium-Germany) - lossless
1998 VA - GRIM HARVEST - Complete Metal Massacre Volumes I-XII


Top
 Profile  
 
 
PostPosted: 08 Nov 2013 
Хиппей (support team)
User avatar
Joined: 30 Jul 2007
Posts: 116090
Lоcаtion: Киев (Kyiv, UA)
Age: 46
Name: Andrey
И мне не помешает скачать бы лосика :thanx:

_________________


Top
 Profile E-mail  
 
 
PostPosted: 12 Nov 2013 
Работнечег
User avatar
Joined: 28 Aug 2007
Posts: 6086
Lоcаtion: г. Москва
Age: 30
Name: Дима
новая ссылка: FLAC


Top
 Profile E-mail  
 
 
PostPosted: 12 Nov 2013 
Хиппей (support team)
User avatar
Joined: 30 Jul 2007
Posts: 116090
Lоcаtion: Киев (Kyiv, UA)
Age: 46
Name: Andrey
:thanx:

mirror: Narod l M-Cloud

_________________


Top
 Profile E-mail  
 
 
PostPosted: 13 Nov 2013 
\m/ 80 см сала \m/
User avatar
Joined: 12 Mar 2012
Posts: 2590
Age: 26
Name: Nick
:lloo: :thanx:
добавил в мавзолеевский коллектор :bodun:

_________________
1990 AUROPHON BRAINSTORM (Germany) - lossless
1994 MAUSOLEUM CLASSIX (Belgium-Germany) - lossless
1998 VA - GRIM HARVEST - Complete Metal Massacre Volumes I-XII


Top
 Profile  
 
Display posts from previous:  Sort by  
Post new topic Reply to topic  [ 14 posts ] 

All times are UTC + 3 hours


Who is online

Users browsing this forum: No registered users and 1 guest


You cannot post new topics in this forum
You cannot reply to topics in this forum
You cannot edit your posts in this forum
You cannot delete your posts in this forum
You cannot post attachments in this forum

Search for:
Яндекс.Метрика
Powered by phpBB © 2000, 2002, 2005, 2007 phpBB Group